找回密码

蓝光电影网

查看: 1265|回复: 2

[剧情] 偷心/靠近 Closer.2004.PROPER.REPACK.1080p.BluRay.x264-SADPANDA 9.91GB

[复制链接]
蓝光币
623
发表于 2018-4-6 20:14:58 | 显示全部楼层 |阅读模式
003129febfqhdc6triqfbj.jpg
◎译  名 偷心/靠近/偷情/诱心人/靠不进的爱/接近
◎片  名 Closer
◎年  代 2004
◎产  地 美国/英国
◎类  别 剧情/恋爱
◎语  言 英语
◎上映日期 2004-12-03(美国)
◎IMDb评分  7.3/10 from 181,883 users
◎IMDb链接  http://www.imdb.com/title/tt0376541/
◎豆瓣评分 7.8/10 from 116,937 users
◎豆瓣链接 https://movie.douban.com/subject/1308974/
◎片  长 104 分钟/Turkey: 98 分钟(TV version)
◎导  演 迈克·尼科尔斯 Mike Nichols
◎主  演 朱莉娅·罗伯茨 Julia Roberts
      裘德·洛 Jude Law
      娜塔莉·波特曼 Natalie Portman
      克里夫·欧文 Clive Owen
      科林·斯廷顿 Colin Stinton
      Nick Hobbs

◎简  介

  四个男女之间的频频关系,在恋爱里追逐和厌倦。丹(裘德·洛 Jude Law 饰)是作家,他爱上了舞女爱丽丝(娜塔丽·波特曼 Natalie Portman 饰)。丹对爱丽丝灼热熄灭的恋爱给了他灵感和豪情,但厌倦也随之而来,他心里在寻觅另一小我的爱,终究他遇上了摄影师安娜 (朱莉娅·罗伯茨 Julia Roberts 饰)。
  安娜和另一个年轻人拉里(克里夫·欧文 Clive Owen饰),在爱的游戏里相互试探和接近。可是丹的打击也让她动了情。嘲讽的是,安娜的情人拉里,也和爱丽丝有了关系。
  因而,躺在他们身旁的人,一定是他们心里驰念的那人。

◎获奖情况

  第77届奥斯卡金像奖  (2005)
  最好男配角(提名) 克里夫·欧文
  最好女配角(提名) 娜塔莉·波特曼

  第58届英国电影学院奖  (2005)
  电影奖 最好男配角 克里夫·欧文
  电影奖 最好女配角(提名) 娜塔莉·波特曼
  电影奖 最好改编剧本(提名) 派崔克·马柏


  1. Video
  2. ID                                       : 1
  3. Format                                   : AVC
  4. Format/Info                              : Advanced Video Codec
  5. Format profile                           : [email][email protected][/email]
  6. Format settings                          : CABAC / 4 Ref Frames
  7. Format settings, CABAC                   : Yes
  8. Format settings, RefFrames               : 4 frames
  9. Codec ID                                 : V_MPEG4/ISO/AVC
  10. Duration                                 : 1 h 43 min
  11. Bit rate                                 : 12.3 Mb/s
  12. Width                                    : 1 920 pixels
  13. Height                                   : 1 040 pixels
  14. Display aspect ratio                     : 1.85:1
  15. Frame rate mode                          : Constant
  16. Frame rate                               : 23.976 (24000/1001) FPS
  17. Color space                              : YUV
  18. Chroma subsampling                       : 4:2:0
  19. Bit depth                                : 8 bits
  20. Scan type                                : Progressive
  21. Bits/(Pixel*Frame)                       : 0.257
  22. Stream size                              : 8.93GB (91%)
  23. Writing library                          : x264 core 155 r2901 7d0ff22
  24. Encoding settings                        : cabac=1 / ref=4 / deblock=1:-3:-3 / analyse=0x3:0x133 / me=umh / subme=10 / psy=1 / psy_rd=1.00:0.15 / mixed_ref=1 / me_range=24 / chroma_me=1 / trellis=2 / 8x8dct=1 / cqm=0 / deadzone=21,11 / fast_pskip=1 / chroma_qp_offset=-3 / threads=30 / lookahead_threads=5 / sliced_threads=0 / nr=0 / decimate=1 / interlaced=0 / bluray_compat=0 / constrained_intra=0 / bframes=8 / b_pyramid=2 / b_adapt=2 / b_bias=0 / direct=3 / weightb=1 / open_gop=0 / weightp=2 / keyint=240 / keyint_min=24 / scenecut=40 / intra_refresh=0 / rc_lookahead=60 / rc=2pass / mbtree=1 / bitrate=12320 / ratetol=1.0 / qcomp=0.60 / qpmin=0 / qpmax=69 / qpstep=4 / cplxblur=20.0 / qblur=0.5 / ip_ratio=1.40 / aq=1:0.80
  25. Default                                  : Yes
  26. Forced                                   : No

  27. Audio
  28. ID                                       : 2
  29. Format                                   : FLAC
  30. Format/Info                              : Free Lossless Audio Codec
  31. Codec ID                                 : A_FLAC
  32. Duration                                 : 1 h 43 min
  33. Bit rate mode                            : Variable
  34. Bit rate                                 : 1 233 kb/s
  35. Channel(s)                               : 6 channels
  36. Channel positions                        : Front: L C R, Side: L R, LFE
  37. Sampling rate                            : 48.0 kHz
  38. Frame rate                               : 11.719 FPS (4096 SPF)
  39. Bit depth                                : 16 bits
  40. Stream size                              : 916 MiB (9%)
  41. Writing library                          : libFLAC 1.2.1 (UTC 2007-09-17)
  42. Language                                 : English
  43. Default                                  : Yes
  44. Forced                                   : No

  45. Text #1
  46. ID                                       : 3
  47. Format                                   : UTF-8
  48. Codec ID                                 : S_TEXT/UTF8
  49. Codec ID/Info                            : UTF-8 Plain Text
  50. Duration                                 : 1 h 34 min
  51. Bit rate                                 : 50 b/s
  52. Count of elements                        : 1143
  53. Stream size                              : 35.1 KiB (0%)
  54. Title                                    : American English
  55. Language                                 : English
  56. Default                                  : No
  57. Forced                                   : No

  58. Text #2
  59. ID                                       : 4
  60. Format                                   : UTF-8
  61. Codec ID                                 : S_TEXT/UTF8
  62. Codec ID/Info                            : UTF-8 Plain Text
  63. Duration                                 : 1 h 34 min
  64. Bit rate                                 : 51 b/s
  65. Count of elements                        : 1394
  66. Stream size                              : 35.4 KiB (0%)
  67. Title                                    : American English SDH
  68. Language                                 : English
  69. Default                                  : No
  70. Forced                                   : No

  71. Text #3
  72. ID                                       : 5
  73. Format                                   : UTF-8
  74. Codec ID                                 : S_TEXT/UTF8
  75. Codec ID/Info                            : UTF-8 Plain Text
  76. Duration                                 : 1 h 34 min
  77. Bit rate                                 : 50 b/s
  78. Count of elements                        : 1143
  79. Stream size                              : 35.1 KiB (0%)
  80. Title                                    : British English
  81. Language                                 : English
  82. Default                                  : No
  83. Forced                                   : No

  84. Text #4
  85. ID                                       : 6
  86. Format                                   : UTF-8
  87. Codec ID                                 : S_TEXT/UTF8
  88. Codec ID/Info                            : UTF-8 Plain Text
  89. Duration                                 : 1 h 34 min
  90. Bit rate                                 : 51 b/s
  91. Count of elements                        : 1394
  92. Stream size                              : 35.4 KiB (0%)
  93. Title                                    : British English SDH
  94. Language                                 : English
  95. Default                                  : No
  96. Forced                                   : No

  97. Menu
  98. 00:00:00.000                             : en:00:00:00.000
  99. 00:05:12.521                             : en:00:05:12.521
  100. 00:10:22.372                             : en:00:10:22.372
  101. 00:18:55.509                             : en:00:18:55.509
  102. 00:22:01.153                             : en:00:22:01.153
  103. 00:28:34.713                             : en:00:28:34.713
  104. 00:35:09.816                             : en:00:35:09.816
  105. 00:40:20.126                             : en:00:40:20.126
  106. 00:45:09.498                             : en:00:45:09.498
  107. 00:51:50.566                             : en:00:51:50.566
  108. 00:54:08.370                             : en:00:54:08.370
  109. 01:00:46.601                             : en:01:00:46.601
  110. 01:13:13.598                             : en:01:13:13.598
  111. 01:20:02.589                             : en:01:20:02.589
  112. 01:26:16.797                             : en:01:26:16.797
  113. 01:32:14.988                             : en:01:32:14.988




复制代码
复制代码
003129yj80met60msmjutr.jpg







回复

使用道具 举报

蓝光币
821
发表于 2018-4-6 21:52:44 | 显示全部楼层
感谢分享好电影
回复 支持 反对

使用道具 举报

蓝光币
130
发表于 2018-4-6 22:24:25 | 显示全部楼层
想靠近,却越来越远,心的距离
回复 支持 反对

使用道具 举报

懒得打字嘛,点击右侧快捷回复 【右侧内容,后台自定义】
您需要登录后才可以回帖 登录 | 立即加入

本版积分规则

Archiver|小黑屋| 蓝光电影网 |网站地图

Copyright © 2021 Comsenz Inc. Powered by 蓝光电影网

蓝光电影网

本站内容由用户自主分享和转载自互联网,转载目的在于传递更多信息,并不代表本网赞同其观点和对其真实性负责。

如有侵权、违反国家法律政策行为,请联系我们,我们会第一时间及时清除和处理!

举报反馈邮箱:[email protected]

快速回复 返回顶部 返回列表