找回密码

蓝光电影网

查看: 8828|回复: 5

[动作] 无敌浩克/神奇绿巨人 The.Incredible.Hulk.2008.1080p.BluRay.x264.DTS-X.7.1-SWTYBLZ 14.41GB

  [复制链接]
蓝光币
623
发表于 2018-4-6 20:17:13 | 显示全部楼层 |阅读模式
180153xvi2ghuyzhv9vc9u.jpg
◎译  名 无敌浩克/奇异绿伟人/绿伟人2/不成思议的绿伟人/新变形侠医
◎片  名 The Incredible Hulk
◎年  代 2008
◎产  地 美国
◎类  别 行动/科幻/惊悚
◎语  言 英语/葡萄牙语/西班牙语
◎上映日期 2008-06-13(美国)/2008-08-20(中国大陆)
◎IMDb评分  6.8/10 from 363,042 users
◎IMDb链接  http://www.imdb.com/title/tt0800080/
◎豆瓣评分 6.8/10 from 84,343 users
◎豆瓣链接 https://movie.douban.com/subject/1866475/
◎片  长 112 分钟
◎导  演 路易斯·莱特里尔 Louis Leterrier
◎主  演 爱德华·诺顿 Edward Norton
      丽芙·泰勒 Liv Tyler
      蒂姆·罗斯 Tim Roth
      威廉·赫特 William Hurt
      蒂姆·布雷克·尼尔森 Tim Blake Nelson

◎简  介

  在高华大学变异的履历总在重演,关于军方通缉的亦围绕在脑海,科学家Bruce Banner(爱德华·诺顿 Edward Norton 饰)就在这样的梦魇下在巴西一边控制着体内的伽马辐射带来的异常,一边尽力和纽约的蓝师长追求处理法子。
  在汽水生产厂房的他一日不谨慎割伤手指,让血滴入了汽水瓶,远销到美国的这瓶汽水表露了他的行迹。美国军方穷尽才能追捕他,还找来求胜心切的英国轰隆将军Emil Blonsky(蒂姆·罗斯 Tim Roth 饰)。被逼到死路的Bruce变身为绿伟人,Emil和其他甲士都大吃一惊。为了亲手擒住Bruce,Emil倡议给自己注入可使基因变异的样本。
  Bruce在美国藏匿时碰到旧女友Betty Ross(丽芙·泰勒 Liv Tyler 饰),Betty义无返顾地站在他一边,同时发现,她具有令他体内绿伟人平稳的气力。
  何处Emil已经被求胜蒙蔽了眼睛,他的挑衅加上美国军方极端想操纵Bruce体内异能作为残暴行动的决心,一场大战已经避无可避。


  1. Video
  2. ID                                       : 1
  3. Format                                   : AVC
  4. Format/Info                              : Advanced Video Codec
  5. Format profile                           : [email][email protected][/email]
  6. Format settings                          : CABAC / 5 Ref Frames
  7. Format settings, CABAC                   : Yes
  8. Format settings, ReFrames                : 5 frames
  9. Codec ID                                 : V_MPEG4/ISO/AVC
  10. Duration                                 : 1 h 52 min
  11. Bit rate                                 : 11.5 Mb/s
  12. Width                                    : 1 920 pixels
  13. Height                                   : 816 pixels
  14. Display aspect ratio                     : 2.35:1
  15. Frame rate mode                          : Constant
  16. Frame rate                               : 23.976 (24000/1001) FPS
  17. Color space                              : YUV
  18. Chroma subsampling                       : 4:2:0
  19. Bit depth                                : 8 bits
  20. Scan type                                : Progressive
  21. Bits/(Pixel*Frame)                       : 0.307
  22. Stream size                              : 9.04GB (63%)
  23. Title                                    : The.Incredible.Hulk.2008.1080p.BluRay.x264.DTS-X.7.1-SWTYBLZh
  24. Writing library                          : x264 core 148 r2748 97eaef2
  25. Encoding settings                        : cabac=1 / ref=5 / deblock=1:-1:-1 / analyse=0x3:0x133 / me=umh / subme=10 / psy=1 / psy_rd=1.00:0.15 / mixed_ref=1 / me_range=48 / chroma_me=1 / trellis=2 / 8x8dct=1 / cqm=0 / deadzone=21,11 / fast_pskip=1 / chroma_qp_offset=-3 / threads=25 / lookahead_threads=4 / sliced_threads=0 / nr=0 / decimate=0 / interlaced=0 / bluray_compat=0 / constrained_intra=0 / bframes=8 / b_pyramid=2 / b_adapt=2 / b_bias=0 / direct=3 / weightb=1 / open_gop=0 / weightp=2 / keyint=250 / keyint_min=23 / scenecut=40 / intra_refresh=0 / rc_lookahead=60 / rc=crf / mbtree=1 / crf=17.0 / qcomp=0.60 / qpmin=0 / qpmax=69 / qpstep=4 / ip_ratio=1.40 / aq=1:1.00
  26. Default                                  : Yes
  27. Forced                                   : No

  28. Audio
  29. ID                                       : 2
  30. Format                                   : DTS
  31. Format/Info                              : Digital Theater Systems
  32. Format profile                           : X / MA / Core
  33. Codec ID                                 : A_DTS
  34. Duration                                 : 1 h 52 min
  35. Bit rate mode                            : Variable / Variable / Constant
  36. Bit rate                                 : 6 787 kb/s / 6 787 kb/s / 1 509 kb/s
  37. Channel(s)                               : Object Based / 8 channels / 6 channels
  38. Channel positions                        : Object Based / Front: L C R, Side: L R, Back: L R, LFE / Front: L C R, Side: L R, LFE
  39. Sampling rate                            :  / 48.0 kHz / 48.0 kHz
  40. Frame rate                               : 93.750 FPS (512 SPF)
  41. Bit depth                                :  / 24 bits / 24 bits
  42. Compression mode                         :  / Lossless / Lossy
  43. Stream size                              : 5.32GB (37%)
  44. Title                                    : The.Incredible.Hulk.2008.1080p.BluRay.x264.DTS-X.7.1-SWTYBLZh
  45. Language                                 : English
  46. Default                                  : Yes
  47. Forced                                   : No

  48. Text #1
  49. ID                                       : 3
  50. Format                                   : UTF-8
  51. Codec ID                                 : S_TEXT/UTF8
  52. Codec ID/Info                            : UTF-8 Plain Text
  53. Duration                                 : 1 h 41 min
  54. Bit rate                                 : 29 b/s
  55. Count of elements                        : 725
  56. Stream size                              : 21.8 KiB (0%)
  57. Title                                    : English-SRT
  58. Language                                 : English
  59. Default                                  : Yes
  60. Forced                                   : No

  61. Text #2
  62. ID                                       : 4
  63. Format                                   : PGS
  64. Muxing mode                              : zlib
  65. Codec ID                                 : S_HDMV/PGS
  66. Codec ID/Info                            : Picture based subtitle format used on BDs/HD-DVDs
  67. Duration                                 : 1 h 44 min
  68. Bit rate                                 : 22.7 kb/s
  69. Count of elements                        : 1763
  70. Stream size                              : 16.9 MiB (0%)
  71. Title                                    : English-PGS
  72. Language                                 : English
  73. Default                                  : No
  74. Forced                                   : No

  75. Text #3
  76. ID                                       : 5
  77. Format                                   : PGS
  78. Muxing mode                              : zlib
  79. Codec ID                                 : S_HDMV/PGS
  80. Codec ID/Info                            : Picture based subtitle format used on BDs/HD-DVDs
  81. Duration                                 : 1 h 50 min
  82. Bit rate                                 : 19.3 kb/s
  83. Count of elements                        : 1580
  84. Stream size                              : 15.2 MiB (0%)
  85. Title                                    : Italian-PGS
  86. Language                                 : Italian
  87. Default                                  : No
  88. Forced                                   : No

  89. Text #4
  90. ID                                       : 6
  91. Format                                   : PGS
  92. Muxing mode                              : zlib
  93. Codec ID                                 : S_HDMV/PGS
  94. Codec ID/Info                            : Picture based subtitle format used on BDs/HD-DVDs
  95. Duration                                 : 1 h 50 min
  96. Bit rate                                 : 12.8 kb/s
  97. Count of elements                        : 1282
  98. Stream size                              : 10.1 MiB (0%)
  99. Title                                    : Dutch-PGS
  100. Language                                 : Dutch
  101. Default                                  : No
  102. Forced                                   : No

  103. Text #5
  104. ID                                       : 7
  105. Format                                   : PGS
  106. Muxing mode                              : zlib
  107. Codec ID                                 : S_HDMV/PGS
  108. Codec ID/Info                            : Picture based subtitle format used on BDs/HD-DVDs
  109. Duration                                 : 1 h 50 min
  110. Bit rate                                 : 15.7 kb/s
  111. Count of elements                        : 1383
  112. Stream size                              : 12.4 MiB (0%)
  113. Title                                    : Danish-PGS
  114. Language                                 : Danish
  115. Default                                  : No
  116. Forced                                   : No

  117. Text #6
  118. ID                                       : 8
  119. Format                                   : PGS
  120. Muxing mode                              : zlib
  121. Codec ID                                 : S_HDMV/PGS
  122. Codec ID/Info                            : Picture based subtitle format used on BDs/HD-DVDs
  123. Duration                                 : 1 h 50 min
  124. Bit rate                                 : 14.1 kb/s
  125. Count of elements                        : 1356
  126. Stream size                              : 11.2 MiB (0%)
  127. Title                                    : Finnish-PGS
  128. Language                                 : Finnish
  129. Default                                  : No
  130. Forced                                   : No

  131. Text #7
  132. ID                                       : 9
  133. Format                                   : PGS
  134. Muxing mode                              : zlib
  135. Codec ID                                 : S_HDMV/PGS
  136. Codec ID/Info                            : Picture based subtitle format used on BDs/HD-DVDs
  137. Duration                                 : 1 h 50 min
  138. Bit rate                                 : 18.8 kb/s
  139. Count of elements                        : 1578
  140. Stream size                              : 14.8 MiB (0%)
  141. Title                                    : Norwegian-PGS
  142. Language                                 : Norwegian
  143. Default                                  : No
  144. Forced                                   : No

  145. Text #8
  146. ID                                       : 10
  147. Format                                   : PGS
  148. Muxing mode                              : zlib
  149. Codec ID                                 : S_HDMV/PGS
  150. Codec ID/Info                            : Picture based subtitle format used on BDs/HD-DVDs
  151. Duration                                 : 1 h 50 min
  152. Bit rate                                 : 16.0 kb/s
  153. Count of elements                        : 1458
  154. Stream size                              : 12.6 MiB (0%)
  155. Title                                    : Swedish-PGS
  156. Language                                 : Swedish
  157. Default                                  : No
  158. Forced                                   : No

  159. Text #9
  160. ID                                       : 11
  161. Format                                   : PGS
  162. Muxing mode                              : zlib
  163. Codec ID                                 : S_HDMV/PGS
  164. Codec ID/Info                            : Picture based subtitle format used on BDs/HD-DVDs
  165. Duration                                 : 1 h 44 min
  166. Bit rate                                 : 17.5 kb/s
  167. Count of elements                        : 1402
  168. Stream size                              : 13.1 MiB (0%)
  169. Title                                    : Portuguese-PGS
  170. Language                                 : Portuguese
  171. Default                                  : No
  172. Forced                                   : No

  173. Text #10
  174. ID                                       : 12
  175. Format                                   : PGS
  176. Muxing mode                              : zlib
  177. Codec ID                                 : S_HDMV/PGS
  178. Codec ID/Info                            : Picture based subtitle format used on BDs/HD-DVDs
  179. Duration                                 : 1 h 50 min
  180. Bit rate                                 : 19.8 kb/s
  181. Count of elements                        : 1588
  182. Stream size                              : 15.6 MiB (0%)
  183. Title                                    : Turkish-PGS
  184. Language                                 : Turkish
  185. Default                                  : No
  186. Forced                                   : No

  187. Text #11
  188. ID                                       : 13
  189. Format                                   : PGS
  190. Muxing mode                              : zlib
  191. Codec ID                                 : S_HDMV/PGS
  192. Codec ID/Info                            : Picture based subtitle format used on BDs/HD-DVDs
  193. Duration                                 : 1 h 50 min
  194. Bit rate                                 : 17.4 kb/s
  195. Count of elements                        : 1586
  196. Stream size                              : 13.7 MiB (0%)
  197. Title                                    : Czech-PGS
  198. Language                                 : Czech
  199. Default                                  : No
  200. Forced                                   : No

  201. Text #12
  202. ID                                       : 14
  203. Format                                   : PGS
  204. Muxing mode                              : zlib
  205. Codec ID                                 : S_HDMV/PGS
  206. Codec ID/Info                            : Picture based subtitle format used on BDs/HD-DVDs
  207. Duration                                 : 1 h 50 min
  208. Bit rate                                 : 13.3 kb/s
  209. Count of elements                        : 1519
  210. Stream size                              : 10.6 MiB (0%)
  211. Title                                    : Chinese-PGS
  212. Language                                 : Chinese
  213. Default                                  : No
  214. Forced                                   : No

  215. Text #13
  216. ID                                       : 15
  217. Format                                   : PGS
  218. Muxing mode                              : zlib
  219. Codec ID                                 : S_HDMV/PGS
  220. Codec ID/Info                            : Picture based subtitle format used on BDs/HD-DVDs
  221. Duration                                 : 1 h 51 min
  222. Bit rate                                 : 13.4 kb/s
  223. Count of elements                        : 1594
  224. Stream size                              : 10.7 MiB (0%)
  225. Title                                    : Korean-PGS
  226. Language                                 : Korean
  227. Default                                  : No
  228. Forced                                   : No

  229. Text #14
  230. ID                                       : 16
  231. Format                                   : PGS
  232. Muxing mode                              : zlib
  233. Codec ID                                 : S_HDMV/PGS
  234. Codec ID/Info                            : Picture based subtitle format used on BDs/HD-DVDs
  235. Duration                                 : 1 h 50 min
  236. Bit rate                                 : 19.1 kb/s
  237. Count of elements                        : 1456
  238. Stream size                              : 15.2 MiB (0%)
  239. Title                                    : Greek-PGS
  240. Language                                 : Greek
  241. Default                                  : No
  242. Forced                                   : No

  243. Menu
  244. 00:00:00.000                             : en:Chapter 1
  245. 00:05:47.638                             : en:Chapter 2
  246. 00:12:50.311                             : en:Chapter 3
  247. 00:16:08.759                             : en:Chapter 4
  248. 00:21:15.023                             : en:Chapter 5
  249. 00:26:25.792                             : en:Chapter 6
  250. 00:30:40.880                             : en:Chapter 7
  251. 00:34:09.547                             : en:Chapter 8
  252. 00:40:20.167                             : en:Chapter 9
  253. 00:47:31.306                             : en:Chapter 10
  254. 00:55:55.185                             : en:Chapter 11
  255. 01:02:25.450                             : en:Chapter 12
  256. 01:07:54.779                             : en:Chapter 13
  257. 01:12:18.917                             : en:Chapter 14
  258. 01:19:51.077                             : en:Chapter 15
  259. 01:24:01.036                             : en:Chapter 16
  260. 01:30:25.545                             : en:Chapter 17
  261. 01:37:01.982                             : en:Chapter 18
  262. 01:42:39.111                             : en:Chapter 19
  263. 01:45:33.160                             : en:Chapter 20



复制代码
复制代码
180155czqnovvvqphaqiva.jpg 180156wzzpmplvvk5pfkxl.jpg 180158yu4vkvkiqy1uavcd.jpg







回复

使用道具 举报

蓝光币
821
发表于 2018-4-6 21:20:58 | 显示全部楼层
感谢分享好电影
回复 支持 反对

使用道具 举报

蓝光币
204
发表于 2018-4-7 08:41:00 | 显示全部楼层
非常感谢分享~
回复 支持 反对

使用道具 举报

蓝光币
300
发表于 2018-9-25 23:33:11 | 显示全部楼层
经典漫威,谢谢提供
回复 支持 反对

使用道具 举报

蓝光币
32
发表于 2019-6-15 20:43:00 | 显示全部楼层
是这个不错哈哈
回复 支持 反对

使用道具 举报

蓝光币
264
发表于 2019-6-20 10:17:11 | 显示全部楼层
感谢分享好电影
回复 支持 反对

使用道具 举报

懒得打字嘛,点击右侧快捷回复 【右侧内容,后台自定义】
您需要登录后才可以回帖 登录 | 立即加入

本版积分规则

Archiver|小黑屋| 蓝光电影网 |网站地图

Copyright © 2021 Comsenz Inc. Powered by 蓝光电影网

蓝光电影网

本站内容由用户自主分享和转载自互联网,转载目的在于传递更多信息,并不代表本网赞同其观点和对其真实性负责。

如有侵权、违反国家法律政策行为,请联系我们,我们会第一时间及时清除和处理!

举报反馈邮箱:[email protected]

快速回复 返回顶部 返回列表