找回密码

蓝光电影网

查看: 2010|回复: 2

[动作] 通勤营救/疾速救援 The.Commuter.2018.1080p.BluRay.x264.TrueHD.7.1.Atmos-FGT 11.34GB

[复制链接]
蓝光币
623
发表于 2018-4-6 20:17:39 | 显示全部楼层 |阅读模式
184602mvdk22xvdipv2vdi.jpg
◎译  名 通勤救援/快速救济/追命列车
◎片  名 The Commuter
◎年  代 2018
◎产  地 美国/英国
◎类  别 行动/犯罪/惊悚
◎语  言 英语
◎上映日期 2018-01-12(美国)/2018-03-30(中国大陆)
◎IMDb评分  6.4/10 from 23,377 users
◎IMDb链接  http://www.imdb.com/title/tt1590193/
◎豆瓣评分 6.8/10 from 14,173 users
◎豆瓣链接 https://movie.douban.com/subject/7056414/
◎片  长 105分钟/104分钟(中国大陆)
◎导  演 佐米·希尔拉 Jaume Collet-Serra
◎主  演 连姆·尼森 Liam Neeson
      维拉·法米加 Vera Farmiga
      帕特里克·威尔森 Patrick Wilson
      乔纳森·班克斯 Jonathan Banks
      山姆·尼尔 Sam Neill
      伊丽莎白·麦戈文 Elizabeth McGovern
      基连·斯科特 Killian Scott
      沙扎德·拉蒂夫 Shazad Latif
      安迪·尼曼 Andy Nyman
      克拉拉·拉戈 Clara Lago
      罗兰·默勒 Roland M?ller
      弗洛伦斯·皮尤 Florence Pugh
      迪恩·查尔斯·查普曼 Dean-Charles Chapman
      埃拉-雷·史姑娘 Ella-Rae Smith
      妮拉·阿利亚 Nila Aalia
      柯林·麦克法兰 Colin McFarlane
      寇布勒·霍尔德布鲁克-史姑娘 Kobna Holdbrook-Smith
      亚当·那加提斯 Adam Nagaitis
      金斯利·本-阿德 Kingsley Ben-Adir
      戴姆森·伊德瑞斯 Damson Idris
      本·卡普兰 Ben Caplan
      利蒂希娅·赖特 Letitia Wright
      杰米·比米什 Jamie Beamish

◎简  介

  影片将故事设定在一列通勤列车上,一位十年如一日乘坐列车上放工的商界人士麦考利(连姆·尼森 饰),偶遇一位自动搭赸的“奥秘乘客”乔安娜(维拉·法米加 饰)。乔安娜为麦考利供给了一个极具引诱性的使命——找出车上的一位乘客,即可获得一笔巨额现金作为回报。但在寻觅的进程中,麦考利逐步发现自己卷入到一场致命的危险处境中。
  他能否可以从这辆“可骇列车”中成功逃走,背后又隐藏着怎样的惊天诡计。随着列车不竭加速,真相逐一揭开......


  1. Video
  2. ID                                       : 1
  3. Format                                   : AVC
  4. Format/Info                              : Advanced Video Codec
  5. Format profile                           : [email][email protected][/email]
  6. Format settings                          : CABAC / 5 Ref Frames
  7. Format settings, CABAC                   : Yes
  8. Format settings, ReFrames                : 5 frames
  9. Codec ID                                 : V_MPEG4/ISO/AVC
  10. Duration                                 : 1 h 44 min
  11. Bit rate                                 : 9 992 kb/s
  12. Width                                    : 1 920 pixels
  13. Height                                   : 808 pixels
  14. Display aspect ratio                     : 2.40:1
  15. Frame rate mode                          : Constant
  16. Frame rate                               : 23.976 FPS
  17. Color space                              : YUV
  18. Chroma subsampling                       : 4:2:0
  19. Bit depth                                : 8 bits
  20. Scan type                                : Progressive
  21. Bits/(Pixel*Frame)                       : 0.269
  22. Stream size                              : 7.32GB (65%)
  23. Title                                    : The.Commuter.2018.1080p.BluRay.x264.TrueHD.7.1.Atmos-FGT
  24. Writing library                          : x264 core 155 r2901 7d0ff22
  25. Encoding settings                        : cabac=1 / ref=5 / deblock=1:0:0 / analyse=0x3:0x133 / me=umh / subme=7 / psy=1 / psy_rd=1.00:0.00 / mixed_ref=1 / me_range=16 / chroma_me=1 / trellis=1 / 8x8dct=1 / cqm=0 / deadzone=21,11 / fast_pskip=0 / chroma_qp_offset=-2 / threads=25 / lookahead_threads=4 / sliced_threads=0 / nr=0 / decimate=1 / interlaced=0 / bluray_compat=0 / constrained_intra=0 / bframes=3 / b_pyramid=2 / b_adapt=1 / b_bias=0 / direct=1 / weightb=1 / open_gop=0 / weightp=2 / keyint=250 / keyint_min=23 / scenecut=40 / intra_refresh=0 / rc_lookahead=40 / rc=2pass / mbtree=1 / bitrate=9992 / ratetol=1.0 / qcomp=0.60 / qpmin=0 / qpmax=69 / qpstep=4 / cplxblur=20.0 / qblur=0.5 / ip_ratio=1.40 / aq=1:1.00
  26. Language                                 : English
  27. Default                                  : Yes
  28. Forced                                   : No

  29. Audio #1
  30. ID                                       : 2
  31. Format                                   : TrueHD
  32. Format profile                           : TrueHD+Atmos / TrueHD
  33. Codec ID                                 : A_TRUEHD
  34. Duration                                 : 1 h 44 min
  35. Bit rate mode                            : Variable
  36. Bit rate                                 : 4 970 kb/s
  37. Maximum bit rate                         : 6 402 kb/s
  38. Channel(s)                               : Object Based / 8 channels
  39. Channel positions                        : Object Based / Front: L C R, Side: L R, Back: L R, LFE
  40. Sampling rate                            :  / 48.0 kHz
  41. Frame rate                               : 1 200.000 FPS (40 SPF)
  42. Compression mode                         : Lossless
  43. Stream size                              : 3.64GB (32%)
  44. Title                                    : The.Commuter.2018.1080p.BluRay.x264.TrueHD.7.1.Atmos-FGT
  45. Language                                 : English
  46. Default                                  : Yes
  47. Forced                                   : No

  48. Audio #2
  49. ID                                       : 3
  50. Format                                   : AC-3
  51. Format/Info                              : Audio Coding 3
  52. Codec ID                                 : A_AC3
  53. Duration                                 : 1 h 44 min
  54. Bit rate mode                            : Constant
  55. Bit rate                                 : 448 kb/s
  56. Channel(s)                               : 6 channels
  57. Channel positions                        : Front: L C R, Side: L R, LFE
  58. Sampling rate                            : 48.0 kHz
  59. Frame rate                               : 31.250 FPS (1536 SPF)
  60. Bit depth                                : 16 bits
  61. Compression mode                         : Lossy
  62. Stream size                              : 336 MiB (3%)
  63. Title                                    : The.Commuter.2018.1080p.BluRay.x264.TrueHD.7.1.Atmos-FGT
  64. Language                                 : English
  65. Service kind                             : Complete Main
  66. Default                                  : No
  67. Forced                                   : No

  68. Text
  69. ID                                       : 4
  70. Format                                   : UTF-8
  71. Codec ID                                 : S_TEXT/UTF8
  72. Codec ID/Info                            : UTF-8 Plain Text
  73. Duration                                 : 1 h 37 min
  74. Bit rate                                 : 70 b/s
  75. Count of elements                        : 1438
  76. Stream size                              : 50.2 KiB (0%)
  77. Title                                    : English-SRT
  78. Language                                 : English
  79. Default                                  : Yes
  80. Forced                                   : No

  81. Menu
  82. 00:00:00.000                             : en:00:00:00.000
  83. 00:05:38.255                             : en:00:05:38.255
  84. 00:12:23.493                             : en:00:12:23.493
  85. 00:16:54.472                             : en:00:16:54.472
  86. 00:25:36.118                             : en:00:25:36.118
  87. 00:32:20.855                             : en:00:32:20.855
  88. 00:41:37.954                             : en:00:41:37.954
  89. 00:44:38.217                             : en:00:44:38.217
  90. 00:52:38.989                             : en:00:52:38.989
  91. 00:59:30.650                             : en:00:59:30.650
  92. 01:04:50.845                             : en:01:04:50.845
  93. 01:11:53.517                             : en:01:11:53.517
  94. 01:20:23.318                             : en:01:20:23.318
  95. 01:25:23.160                             : en:01:25:23.160
  96. 01:30:45.648                             : en:01:30:45.648
  97. 01:37:26.340                             : en:01:37:26.340



复制代码
复制代码
184603n9ohxvf6uuohrh6r.jpg 184604kaf4qq0aedd1e1y6.jpg 184604wrxtwyd53rnezdtw.jpg







回复

使用道具 举报

蓝光币
821
发表于 2018-4-6 20:57:11 | 显示全部楼层
感谢分享好电影
回复 支持 反对

使用道具 举报

蓝光币
74
发表于 2018-4-7 10:22:48 | 显示全部楼层
感谢楼主分享
回复 支持 反对

使用道具 举报

懒得打字嘛,点击右侧快捷回复 【右侧内容,后台自定义】
您需要登录后才可以回帖 登录 | 立即加入

本版积分规则

Archiver|小黑屋| 蓝光电影网 |网站地图

Copyright © 2021 Comsenz Inc. Powered by 蓝光电影网

蓝光电影网

本站内容由用户自主分享和转载自互联网,转载目的在于传递更多信息,并不代表本网赞同其观点和对其真实性负责。

如有侵权、违反国家法律政策行为,请联系我们,我们会第一时间及时清除和处理!

举报反馈邮箱:[email protected]

快速回复 返回顶部 返回列表