找回密码

蓝光电影网

查看: 2337|回复: 2

[剧情] 马戏之王/大娱乐家 The.Greatest.Showman.2017.1080p.BluRay.x264.TrueHD.7.1.Atmos-SWTYBLZ 8.19GB

[复制链接]
蓝光币
623
发表于 2018-4-7 09:59:33 | 显示全部楼层 |阅读模式
040643c0y0tzt7d0dd38ea.jpg
◎译  名 马戏之王/大文娱家(港/台)/地球最强秀/地球最强马戏演员/全球最巨大的马戏演员/大秀之王
◎片  名 The Greatest Showman
◎年  代 2017
◎产  地 美国
◎类  别 剧情/列传/歌舞
◎语  言 英语
◎上映日期 2017-12-20(美国)/2018-02-01(中国大陆)
◎IMDb评分  7.8/10 from 98,625 users
◎IMDb链接  http://www.imdb.com/title/tt1485796/
◎豆瓣评分 7.9/10 from 67,960 users
◎豆瓣链接 https://movie.douban.com/subject/3914513/
◎片  长 105分钟/106分钟(中国大陆)
◎导  演 迈克尔·格雷西 Michael Gracey
◎主  演 休·杰克曼 Hugh Jackman
      米歇尔·威廉姆斯 Michelle Williams
      扎克·埃夫隆 Zac Efron
      赞达亚 Zendaya
      丽贝卡·弗格森 Rebecca Ferguson
      奥丝汀·约翰森 Austyn Johnson
      卡梅伦·丝蕾 Cameron Seely
      基拉·塞特尔 Keala Settle
      萨姆·汉弗莱 Sam Humphrey
      叶海亚·阿卜杜勒-迈丁 Yahya Abdul-Mateen II
      埃里克·安德森 Eric Anderson
      伊利斯·鲁宾 Ellis Rubin
      斯凯勒·杜恩 Skylar Dunn
      丹尼尔·埃维里奇 Daniel Everidge
      拉杜·斯平格尔 Radu Spinghel
      小森优作 Yusaku Komori
      丹尼尔·松 Danial Son
      保罗·斯帕克斯 Paul Sparks
      威尔·斯文森 Will Swenson

◎简  介

  《马戏之王》取材自真人真事,好莱坞万能巨星休·杰克曼在片中饰演“马戏团鼻祖”、传奇人物P.T.巴纳姆。故事报告了身处社会底层的巴纳姆依靠自己无穷设想力和锲而不舍的精神,从经营博物馆到一手开创天下上第一家马戏团的故事。巴纳姆的奇思妙想最起头并不被公共所认可,几近没人花钱欣赏,他的家人好友帮他度过一次次绝境。在履历了一系列挫折、与合作伙伴的分歧以后,秉持胡想的他终究成为全美甚至全天下最为著名的“造梦大师”。

◎获奖情况

  第90届奥斯卡金像奖  (2018)
  最好原创歌曲(提名) 本吉·帕塞克 / 贾斯廷·保罗

  第75届金球奖  (2018)
  电影类 最好音乐/笑剧片(提名)
  电影类 音乐/笑剧片最好男配角(提名) 休·杰克曼
  电影类 最好原创歌曲

  第23届美国批评家挑选电影奖  (2018)
  最好歌曲(提名)


  1. Video
  2. ID                                       : 1
  3. Format                                   : AVC
  4. Format/Info                              : Advanced Video Codec
  5. Format profile                           : [email][email protected][/email]
  6. Format settings                          : CABAC / 5 Ref Frames
  7. Format settings, CABAC                   : Yes
  8. Format settings, ReFrames                : 5 frames
  9. Codec ID                                 : V_MPEG4/ISO/AVC
  10. Duration                                 : 1 h 44 min
  11. Bit rate                                 : 5 331 kb/s
  12. Width                                    : 1 920 pixels
  13. Height                                   : 800 pixels
  14. Display aspect ratio                     : 2.40:1
  15. Frame rate mode                          : Constant
  16. Frame rate                               : 23.976 (24000/1001) FPS
  17. Color space                              : YUV
  18. Chroma subsampling                       : 4:2:0
  19. Bit depth                                : 8 bits
  20. Scan type                                : Progressive
  21. Bits/(Pixel*Frame)                       : 0.145
  22. Stream size                              : 3.90GB (48%)
  23. Title                                    : The.Greatest.Showman.2017.1080p.BluRay.x264.TrueHD.7.1.Atmos-SWTYBLZ
  24. Writing library                          : x264 core 155 r2901 7d0ff22
  25. Encoding settings                        : cabac=1 / ref=5 / deblock=1:0:0 / analyse=0x3:0x133 / me=umh / subme=10 / psy=1 / psy_rd=1.00:0.00 / mixed_ref=1 / me_range=24 / chroma_me=1 / trellis=2 / 8x8dct=1 / cqm=0 / deadzone=21,11 / fast_pskip=1 / chroma_qp_offset=-2 / threads=24 / lookahead_threads=4 / sliced_threads=0 / nr=0 / decimate=1 / interlaced=0 / bluray_compat=0 / constrained_intra=0 / bframes=8 / b_pyramid=2 / b_adapt=2 / b_bias=0 / direct=3 / weightb=1 / open_gop=0 / weightp=2 / keyint=240 / keyint_min=24 / scenecut=40 / intra_refresh=0 / rc_lookahead=60 / rc=crf / mbtree=1 / crf=17.0 / qcomp=0.60 / qpmin=0 / qpmax=69 / qpstep=4 / ip_ratio=1.40 / aq=1:1.00
  26. Language                                 : English
  27. Default                                  : Yes
  28. Forced                                   : No

  29. Audio #1
  30. ID                                       : 2
  31. Format                                   : TrueHD
  32. Format profile                           : TrueHD+Atmos / TrueHD
  33. Codec ID                                 : A_TRUEHD
  34. Duration                                 : 1 h 44 min
  35. Bit rate mode                            : Variable
  36. Bit rate                                 : 4 572 kb/s
  37. Maximum bit rate                         : 7 779 kb/s
  38. Channel(s)                               : Object Based / 8 channels
  39. Channel positions                        : Object Based / Front: L C R, Side: L R, Back: L R, LFE
  40. Sampling rate                            :  / 48.0 kHz
  41. Frame rate                               : 1 200.000 FPS (40 SPF)
  42. Compression mode                         : Lossless
  43. Stream size                              : 3.35GB (41%)
  44. Title                                    : The.Greatest.Showman.2017.1080p.BluRay.x264.TrueHD.7.1.Atmos-SWTYBLZ
  45. Language                                 : English
  46. Default                                  : Yes
  47. Forced                                   : No

  48. Audio #2
  49. ID                                       : 3
  50. Format                                   : AC-3
  51. Format/Info                              : Audio Coding 3
  52. Codec ID                                 : A_AC3
  53. Duration                                 : 1 h 44 min
  54. Bit rate mode                            : Constant
  55. Bit rate                                 : 640 kb/s
  56. Channel(s)                               : 6 channels
  57. Channel positions                        : Front: L C R, Side: L R, LFE
  58. Sampling rate                            : 48.0 kHz
  59. Frame rate                               : 31.250 FPS (1536 SPF)
  60. Bit depth                                : 16 bits
  61. Compression mode                         : Lossy
  62. Stream size                              : 480 MiB (6%)
  63. Title                                    : The.Greatest.Showman.2017.1080p.BluRay.x264.TrueHD.7.1.Atmos-SWTYBLZ
  64. Language                                 : English
  65. Service kind                             : Complete Main
  66. Default                                  : No
  67. Forced                                   : No

  68. Text #1
  69. ID                                       : 4
  70. Format                                   : UTF-8
  71. Codec ID                                 : S_TEXT/UTF8
  72. Codec ID/Info                            : UTF-8 Plain Text
  73. Duration                                 : 1 h 32 min
  74. Bit rate                                 : 40 b/s
  75. Count of elements                        : 950
  76. Stream size                              : 27.5 KiB (0%)
  77. Title                                    : English-SRT
  78. Language                                 : English
  79. Default                                  : Yes
  80. Forced                                   : No

  81. Text #2
  82. ID                                       : 5
  83. Format                                   : UTF-8
  84. Codec ID                                 : S_TEXT/UTF8
  85. Codec ID/Info                            : UTF-8 Plain Text
  86. Duration                                 : 1 h 43 min
  87. Bit rate                                 : 84 b/s
  88. Count of elements                        : 1864
  89. Stream size                              : 64.3 KiB (0%)
  90. Title                                    : English-SDH-SRT
  91. Language                                 : English
  92. Default                                  : No
  93. Forced                                   : No

  94. Text #3
  95. ID                                       : 6
  96. Format                                   : PGS
  97. Muxing mode                              : zlib
  98. Codec ID                                 : S_HDMV/PGS
  99. Codec ID/Info                            : Picture based subtitle format used on BDs/HD-DVDs
  100. Duration                                 : 1 h 43 min
  101. Bit rate                                 : 51.5 kb/s
  102. Count of elements                        : 3728
  103. Stream size                              : 38.1 MiB (0%)
  104. Title                                    : English-PGS
  105. Language                                 : English
  106. Default                                  : No
  107. Forced                                   : No

  108. Text #4
  109. ID                                       : 7
  110. Format                                   : PGS
  111. Muxing mode                              : zlib
  112. Codec ID                                 : S_HDMV/PGS
  113. Codec ID/Info                            : Picture based subtitle format used on BDs/HD-DVDs
  114. Duration                                 : 1 h 43 min
  115. Bit rate                                 : 38.9 kb/s
  116. Count of elements                        : 2932
  117. Stream size                              : 28.9 MiB (0%)
  118. Title                                    : Spanish-PGS
  119. Language                                 : Spanish
  120. Default                                  : No
  121. Forced                                   : No

  122. Text #5
  123. ID                                       : 8
  124. Format                                   : PGS
  125. Muxing mode                              : zlib
  126. Codec ID                                 : S_HDMV/PGS
  127. Codec ID/Info                            : Picture based subtitle format used on BDs/HD-DVDs
  128. Duration                                 : 1 h 44 min
  129. Bit rate                                 : 41.9 kb/s
  130. Count of elements                        : 3367
  131. Stream size                              : 31.3 MiB (0%)
  132. Title                                    : French-PGS
  133. Language                                 : French
  134. Default                                  : No
  135. Forced                                   : No

  136. Text #6
  137. ID                                       : 9
  138. Format                                   : PGS
  139. Muxing mode                              : zlib
  140. Codec ID                                 : S_HDMV/PGS
  141. Codec ID/Info                            : Picture based subtitle format used on BDs/HD-DVDs
  142. Duration                                 : 1 h 43 min
  143. Bit rate                                 : 33.0 kb/s
  144. Count of elements                        : 2706
  145. Stream size                              : 24.5 MiB (0%)
  146. Title                                    : French-PGS
  147. Language                                 : French
  148. Default                                  : No
  149. Forced                                   : No

  150. Text #7
  151. ID                                       : 10
  152. Format                                   : PGS
  153. Muxing mode                              : zlib
  154. Codec ID                                 : S_HDMV/PGS
  155. Codec ID/Info                            : Picture based subtitle format used on BDs/HD-DVDs
  156. Duration                                 : 1 h 43 min
  157. Bit rate                                 : 38.0 kb/s
  158. Count of elements                        : 2984
  159. Stream size                              : 28.2 MiB (0%)
  160. Title                                    : Spanish-PGS
  161. Language                                 : Spanish
  162. Default                                  : No
  163. Forced                                   : No

  164. Text #8
  165. ID                                       : 11
  166. Format                                   : PGS
  167. Muxing mode                              : zlib
  168. Codec ID                                 : S_HDMV/PGS
  169. Codec ID/Info                            : Picture based subtitle format used on BDs/HD-DVDs
  170. Duration                                 : 1 h 43 min
  171. Bit rate                                 : 33.8 kb/s
  172. Count of elements                        : 2254
  173. Stream size                              : 25.1 MiB (0%)
  174. Title                                    : Danish-PGS
  175. Language                                 : Danish
  176. Default                                  : No
  177. Forced                                   : No

  178. Text #9
  179. ID                                       : 12
  180. Format                                   : PGS
  181. Muxing mode                              : zlib
  182. Codec ID                                 : S_HDMV/PGS
  183. Codec ID/Info                            : Picture based subtitle format used on BDs/HD-DVDs
  184. Duration                                 : 1 h 43 min
  185. Bit rate                                 : 36.0 kb/s
  186. Count of elements                        : 2556
  187. Stream size                              : 26.7 MiB (0%)
  188. Title                                    : Dutch-PGS
  189. Language                                 : Dutch
  190. Default                                  : No
  191. Forced                                   : No

  192. Text #10
  193. ID                                       : 13
  194. Format                                   : PGS
  195. Muxing mode                              : zlib
  196. Codec ID                                 : S_HDMV/PGS
  197. Codec ID/Info                            : Picture based subtitle format used on BDs/HD-DVDs
  198. Duration                                 : 1 h 43 min
  199. Bit rate                                 : 36.4 kb/s
  200. Count of elements                        : 2964
  201. Stream size                              : 27.0 MiB (0%)
  202. Title                                    : Finnish-PGS
  203. Language                                 : Finnish
  204. Default                                  : No
  205. Forced                                   : No

  206. Text #11
  207. ID                                       : 14
  208. Format                                   : PGS
  209. Muxing mode                              : zlib
  210. Codec ID                                 : S_HDMV/PGS
  211. Codec ID/Info                            : Picture based subtitle format used on BDs/HD-DVDs
  212. Duration                                 : 1 h 43 min
  213. Bit rate                                 : 41.2 kb/s
  214. Count of elements                        : 2602
  215. Stream size                              : 30.6 MiB (0%)
  216. Title                                    : German-PGS
  217. Language                                 : German
  218. Default                                  : No
  219. Forced                                   : No

  220. Text #12
  221. ID                                       : 15
  222. Format                                   : PGS
  223. Muxing mode                              : zlib
  224. Codec ID                                 : S_HDMV/PGS
  225. Codec ID/Info                            : Picture based subtitle format used on BDs/HD-DVDs
  226. Duration                                 : 1 h 43 min
  227. Bit rate                                 : 41.0 kb/s
  228. Count of elements                        : 2948
  229. Stream size                              : 30.4 MiB (0%)
  230. Title                                    : Italian-PGS
  231. Language                                 : Italian
  232. Default                                  : No
  233. Forced                                   : No

  234. Text #13
  235. ID                                       : 16
  236. Format                                   : PGS
  237. Muxing mode                              : zlib
  238. Codec ID                                 : S_HDMV/PGS
  239. Codec ID/Info                            : Picture based subtitle format used on BDs/HD-DVDs
  240. Duration                                 : 1 h 43 min
  241. Bit rate                                 : 39.3 kb/s
  242. Count of elements                        : 2978
  243. Stream size                              : 29.2 MiB (0%)
  244. Title                                    : Norwegian-PGS
  245. Language                                 : Norwegian
  246. Default                                  : No
  247. Forced                                   : No

  248. Text #14
  249. ID                                       : 17
  250. Format                                   : PGS
  251. Muxing mode                              : zlib
  252. Codec ID                                 : S_HDMV/PGS
  253. Codec ID/Info                            : Picture based subtitle format used on BDs/HD-DVDs
  254. Duration                                 : 1 h 43 min
  255. Bit rate                                 : 39.7 kb/s
  256. Count of elements                        : 2966
  257. Stream size                              : 29.5 MiB (0%)
  258. Title                                    : Swedish-PGS
  259. Language                                 : Swedish
  260. Default                                  : No
  261. Forced                                   : No

  262. Text #15
  263. ID                                       : 18
  264. Format                                   : PGS
  265. Muxing mode                              : zlib
  266. Codec ID                                 : S_HDMV/PGS
  267. Codec ID/Info                            : Picture based subtitle format used on BDs/HD-DVDs
  268. Duration                                 : 1 h 43 min
  269. Bit rate                                 : 30.5 kb/s
  270. Count of elements                        : 3018
  271. Stream size                              : 22.6 MiB (0%)
  272. Title                                    : Chinese-PGS
  273. Language                                 : Chinese
  274. Default                                  : No
  275. Forced                                   : No

  276. Text #16
  277. ID                                       : 19
  278. Format                                   : PGS
  279. Muxing mode                              : zlib
  280. Codec ID                                 : S_HDMV/PGS
  281. Codec ID/Info                            : Picture based subtitle format used on BDs/HD-DVDs
  282. Duration                                 : 1 h 44 min
  283. Bit rate                                 : 39.4 kb/s
  284. Count of elements                        : 3032
  285. Stream size                              : 29.5 MiB (0%)
  286. Title                                    : Czech-PGS
  287. Language                                 : Czech
  288. Default                                  : No
  289. Forced                                   : No

  290. Text #17
  291. ID                                       : 20
  292. Format                                   : PGS
  293. Muxing mode                              : zlib
  294. Codec ID                                 : S_HDMV/PGS
  295. Codec ID/Info                            : Picture based subtitle format used on BDs/HD-DVDs
  296. Duration                                 : 1 h 43 min
  297. Bit rate                                 : 29.2 kb/s
  298. Count of elements                        : 2994
  299. Stream size                              : 21.7 MiB (0%)
  300. Title                                    : Chinese-PGS
  301. Language                                 : Chinese
  302. Default                                  : No
  303. Forced                                   : No

  304. Text #18
  305. ID                                       : 21
  306. Format                                   : PGS
  307. Muxing mode                              : zlib
  308. Codec ID                                 : S_HDMV/PGS
  309. Codec ID/Info                            : Picture based subtitle format used on BDs/HD-DVDs
  310. Duration                                 : 1 h 43 min
  311. Bit rate                                 : 34.3 kb/s
  312. Count of elements                        : 2852
  313. Stream size                              : 25.5 MiB (0%)
  314. Title                                    : Polish-PGS
  315. Language                                 : Polish
  316. Default                                  : No
  317. Forced                                   : No

  318. Text #19
  319. ID                                       : 22
  320. Format                                   : PGS
  321. Muxing mode                              : zlib
  322. Codec ID                                 : S_HDMV/PGS
  323. Codec ID/Info                            : Picture based subtitle format used on BDs/HD-DVDs
  324. Duration                                 : 1 h 36 min
  325. Bit rate                                 : 54.2 kb/s
  326. Count of elements                        : 2359
  327. Stream size                              : 37.5 MiB (0%)
  328. Title                                    : English-COMMENTARY-PGS
  329. Language                                 : English
  330. Default                                  : No
  331. Forced                                   : No

  332. Text #20
  333. ID                                       : 23
  334. Format                                   : PGS
  335. Muxing mode                              : zlib
  336. Codec ID                                 : S_HDMV/PGS
  337. Codec ID/Info                            : Picture based subtitle format used on BDs/HD-DVDs
  338. Duration                                 : 1 h 44 min
  339. Bit rate                                 : 50.4 kb/s
  340. Count of elements                        : 2488
  341. Stream size                              : 37.7 MiB (0%)
  342. Title                                    : Spanish-COMMENTARY-PGS
  343. Language                                 : Spanish
  344. Default                                  : No
  345. Forced                                   : No

  346. Text #21
  347. ID                                       : 24
  348. Format                                   : PGS
  349. Muxing mode                              : zlib
  350. Codec ID                                 : S_HDMV/PGS
  351. Codec ID/Info                            : Picture based subtitle format used on BDs/HD-DVDs
  352. Duration                                 : 1 h 44 min
  353. Bit rate                                 : 47.0 kb/s
  354. Count of elements                        : 2379
  355. Stream size                              : 35.1 MiB (0%)
  356. Title                                    : French-COMMENTARY-PGS
  357. Language                                 : French
  358. Default                                  : No
  359. Forced                                   : No

  360. Text #22
  361. ID                                       : 25
  362. Format                                   : PGS
  363. Muxing mode                              : zlib
  364. Codec ID                                 : S_HDMV/PGS
  365. Codec ID/Info                            : Picture based subtitle format used on BDs/HD-DVDs
  366. Duration                                 : 1 h 44 min
  367. Bit rate                                 : 48.0 kb/s
  368. Count of elements                        : 2377
  369. Stream size                              : 35.9 MiB (0%)
  370. Title                                    : Spanish-COMMENTARY-PGS
  371. Language                                 : Spanish
  372. Default                                  : No
  373. Forced                                   : No

  374. Text #23
  375. ID                                       : 26
  376. Format                                   : PGS
  377. Muxing mode                              : zlib
  378. Codec ID                                 : S_HDMV/PGS
  379. Codec ID/Info                            : Picture based subtitle format used on BDs/HD-DVDs
  380. Duration                                 : 1 h 44 min
  381. Bit rate                                 : 41.8 kb/s
  382. Count of elements                        : 2370
  383. Stream size                              : 31.3 MiB (0%)
  384. Title                                    : Danish-COMMENTARY-PGS
  385. Language                                 : Danish
  386. Default                                  : No
  387. Forced                                   : No

  388. Text #24
  389. ID                                       : 27
  390. Format                                   : PGS
  391. Muxing mode                              : zlib
  392. Codec ID                                 : S_HDMV/PGS
  393. Codec ID/Info                            : Picture based subtitle format used on BDs/HD-DVDs
  394. Duration                                 : 1 h 44 min
  395. Bit rate                                 : 48.0 kb/s
  396. Count of elements                        : 2372
  397. Stream size                              : 35.9 MiB (0%)
  398. Title                                    : Dutch-COMMENTARY-PGS
  399. Language                                 : Dutch
  400. Default                                  : No
  401. Forced                                   : No

  402. Text #25
  403. ID                                       : 28
  404. Format                                   : PGS
  405. Muxing mode                              : zlib
  406. Codec ID                                 : S_HDMV/PGS
  407. Codec ID/Info                            : Picture based subtitle format used on BDs/HD-DVDs
  408. Duration                                 : 1 h 44 min
  409. Bit rate                                 : 44.5 kb/s
  410. Count of elements                        : 2372
  411. Stream size                              : 33.3 MiB (0%)
  412. Title                                    : Finnish-COMMENTARY-PGS
  413. Language                                 : Finnish
  414. Default                                  : No
  415. Forced                                   : No

  416. Text #26
  417. ID                                       : 29
  418. Format                                   : PGS
  419. Muxing mode                              : zlib
  420. Codec ID                                 : S_HDMV/PGS
  421. Codec ID/Info                            : Picture based subtitle format used on BDs/HD-DVDs
  422. Duration                                 : 1 h 44 min
  423. Bit rate                                 : 50.7 kb/s
  424. Count of elements                        : 2377
  425. Stream size                              : 37.9 MiB (0%)
  426. Title                                    : German-COMMENTARY-PGS
  427. Language                                 : German
  428. Default                                  : No
  429. Forced                                   : No

  430. Text #27
  431. ID                                       : 30
  432. Format                                   : PGS
  433. Muxing mode                              : zlib
  434. Codec ID                                 : S_HDMV/PGS
  435. Codec ID/Info                            : Picture based subtitle format used on BDs/HD-DVDs
  436. Duration                                 : 1 h 44 min
  437. Bit rate                                 : 47.3 kb/s
  438. Count of elements                        : 2372
  439. Stream size                              : 35.4 MiB (0%)
  440. Title                                    : Italian-COMMENTARY-PGS
  441. Language                                 : Italian
  442. Default                                  : No
  443. Forced                                   : No

  444. Text #28
  445. ID                                       : 31
  446. Format                                   : PGS
  447. Muxing mode                              : zlib
  448. Codec ID                                 : S_HDMV/PGS
  449. Codec ID/Info                            : Picture based subtitle format used on BDs/HD-DVDs
  450. Duration                                 : 1 h 44 min
  451. Bit rate                                 : 45.9 kb/s
  452. Count of elements                        : 2372
  453. Stream size                              : 34.4 MiB (0%)
  454. Title                                    : Norwegian-COMMENTARY-PGS
  455. Language                                 : Norwegian
  456. Default                                  : No
  457. Forced                                   : No

  458. Text #29
  459. ID                                       : 32
  460. Format                                   : PGS
  461. Muxing mode                              : zlib
  462. Codec ID                                 : S_HDMV/PGS
  463. Codec ID/Info                            : Picture based subtitle format used on BDs/HD-DVDs
  464. Duration                                 : 1 h 44 min
  465. Bit rate                                 : 46.6 kb/s
  466. Count of elements                        : 2370
  467. Stream size                              : 34.9 MiB (0%)
  468. Title                                    : Swedish-COMMENTARY-PGS
  469. Language                                 : Swedish
  470. Default                                  : No
  471. Forced                                   : No

  472. Text #30
  473. ID                                       : 33
  474. Format                                   : PGS
  475. Muxing mode                              : zlib
  476. Codec ID                                 : S_HDMV/PGS
  477. Codec ID/Info                            : Picture based subtitle format used on BDs/HD-DVDs
  478. Duration                                 : 1 h 43 min
  479. Bit rate                                 : 22.6 kb/s
  480. Count of elements                        : 2670
  481. Stream size                              : 16.8 MiB (0%)
  482. Title                                    : Japanese-PGS
  483. Language                                 : Japanese
  484. Default                                  : No
  485. Forced                                   : No

  486. Text #31
  487. ID                                       : 34
  488. Format                                   : PGS
  489. Muxing mode                              : zlib
  490. Codec ID                                 : S_HDMV/PGS
  491. Codec ID/Info                            : Picture based subtitle format used on BDs/HD-DVDs
  492. Duration                                 : 1 h 36 min
  493. Bit rate                                 : 10.5 kb/s
  494. Count of elements                        : 1028
  495. Stream size                              : 7.24 MiB (0%)
  496. Title                                    : Japanese-FORCED-PGS
  497. Language                                 : Japanese
  498. Default                                  : No
  499. Forced                                   : No

  500. Text #32
  501. ID                                       : 35
  502. Format                                   : PGS
  503. Muxing mode                              : zlib
  504. Codec ID                                 : S_HDMV/PGS
  505. Codec ID/Info                            : Picture based subtitle format used on BDs/HD-DVDs
  506. Duration                                 : 1 h 44 min
  507. Bit rate                                 : 29.0 kb/s
  508. Count of elements                        : 1950
  509. Stream size                              : 21.7 MiB (0%)
  510. Title                                    : Japanese-PGS
  511. Language                                 : Japanese
  512. Default                                  : No
  513. Forced                                   : No

  514. Text #33
  515. ID                                       : 36
  516. Format                                   : PGS
  517. Muxing mode                              : zlib
  518. Codec ID                                 : S_HDMV/PGS
  519. Codec ID/Info                            : Picture based subtitle format used on BDs/HD-DVDs
  520. Duration                                 : 1 h 43 min
  521. Bit rate                                 : 167 kb/s
  522. Count of elements                        : 5256
  523. Stream size                              : 124 MiB (1%)
  524. Title                                    : English
  525. Language                                 : English
  526. Default                                  : No
  527. Forced                                   : No

  528. Menu
  529. 00:00:00.000                             : en:Chapter 1
  530. 00:03:21.618                             : en:Chapter 2
  531. 00:11:33.984                             : en:Chapter 3
  532. 00:16:21.313                             : en:Chapter 4
  533. 00:21:13.730                             : en:Chapter 5
  534. 00:25:04.169                             : en:Chapter 6
  535. 00:32:10.178                             : en:Chapter 7
  536. 00:36:09.625                             : en:Chapter 8
  537. 00:41:38.412                             : en:Chapter 9
  538. 00:44:41.053                             : en:Chapter 10
  539. 00:48:24.151                             : en:Chapter 11
  540. 00:53:11.146                             : en:Chapter 12
  541. 00:56:20.710                             : en:Chapter 13
  542. 01:01:34.816                             : en:Chapter 14
  543. 01:07:33.883                             : en:Chapter 15
  544. 01:12:00.983                             : en:Chapter 16
  545. 01:18:23.699                             : en:Chapter 17
  546. 01:22:07.130                             : en:Chapter 18
  547. 01:29:04.797                             : en:Chapter 19
  548. 01:37:09.448                             : en:Chapter 20



复制代码
复制代码
040644rvpt6q6mzqmpllpg.jpg 040645ntzkofzpk3fn3noq.jpg 040645uo3icc3cf3fohsns.jpg







回复

使用道具 举报

蓝光币
262
发表于 2018-4-10 14:56:34 | 显示全部楼层
感谢楼主分享~~~~~~~~~~~~~~~~~
回复 支持 反对

使用道具 举报

蓝光币
1
发表于 2018-4-15 18:58:58 | 显示全部楼层
感谢楼主分享
回复 支持 反对

使用道具 举报

懒得打字嘛,点击右侧快捷回复 【右侧内容,后台自定义】
您需要登录后才可以回帖 登录 | 立即加入

本版积分规则

Archiver|小黑屋| 蓝光电影网 |网站地图

Copyright © 2021 Comsenz Inc. Powered by 蓝光电影网

蓝光电影网

本站内容由用户自主分享和转载自互联网,转载目的在于传递更多信息,并不代表本网赞同其观点和对其真实性负责。

如有侵权、违反国家法律政策行为,请联系我们,我们会第一时间及时清除和处理!

举报反馈邮箱:[email protected]

快速回复 返回顶部 返回列表