找回密码

蓝光电影网

查看: 1245|回复: 5

[纪录] 人流/人口流动 Human.Flow.2017.LIMITED.1080p.BluRay.x264-USURY 13.11GB

[复制链接]
蓝光币
623
发表于 2018-4-7 10:00:25 | 显示全部楼层 |阅读模式
054332jiinn003383383h0.jpg
◎译  名 人流/生齿活动
◎片  名 Human Flow
◎年  代 2017
◎产  地 德国/美国
◎类  别 记载片
◎语  言 英语
◎上映日期 2017-09-01(威尼斯电影节)
◎IMDb评分  6.9/10 from 1,080 users
◎IMDb链接  http://www.imdb.com/title/tt6573444/
◎豆瓣评分 6.6/10 from 520 users
◎豆瓣链接 https://movie.douban.com/subject/27099390/
◎片  长 140分钟
◎导  演 艾未未 Weiwei Ai
◎主  演 Boris Cheshirkov

◎简  介

  Human Flow is director and artist Ai Weiwei's detailed and heartbreaking exploration into the global refugee crisis.

◎获奖情况

  第74届威尼斯电影节  (2017)
  主比赛单元 金狮奖 (提名) 艾未未

  第22届金卫星奖  (2018)
  电影部分 最好记载片(提名)


  1. Video
  2. ID                                       : 1
  3. Format                                   : AVC
  4. Format/Info                              : Advanced Video Codec
  5. Format profile                           : [email][email protected][/email]
  6. Format settings                          : CABAC / 4 Ref Frames
  7. Format settings, CABAC                   : Yes
  8. Format settings, RefFrames               : 4 frames
  9. Codec ID                                 : V_MPEG4/ISO/AVC
  10. Duration                                 : 2 h 21 min
  11. Bit rate                                 : 11.8 Mb/s
  12. Width                                    : 1 920 pixels
  13. Height                                   : 1 040 pixels
  14. Display aspect ratio                     : 1.85:1
  15. Frame rate mode                          : Constant
  16. Frame rate                               : 23.976 (24000/1001) FPS
  17. Color space                              : YUV
  18. Chroma subsampling                       : 4:2:0
  19. Bit depth                                : 8 bits
  20. Scan type                                : Progressive
  21. Bits/(Pixel*Frame)                       : 0.246
  22. Stream size                              : 11.6GB (89%)
  23. Writing library                          : x264 core 155 r2901 7d0ff22
  24. Encoding settings                        : cabac=1 / ref=4 / deblock=1:-3:-3 / analyse=0x3:0x133 / me=umh / subme=9 / psy=1 / psy_rd=1.00:0.00 / mixed_ref=1 / me_range=16 / chroma_me=1 / trellis=2 / 8x8dct=1 / cqm=0 / deadzone=21,11 / fast_pskip=0 / chroma_qp_offset=-2 / threads=32 / lookahead_threads=2 / sliced_threads=0 / nr=0 / decimate=1 / interlaced=0 / bluray_compat=0 / constrained_intra=0 / bframes=3 / b_pyramid=2 / b_adapt=1 / b_bias=0 / direct=3 / weightb=1 / open_gop=0 / weightp=2 / keyint=240 / keyint_min=24 / scenecut=40 / intra_refresh=0 / rc_lookahead=50 / rc=2pass / mbtree=1 / bitrate=11801 / ratetol=1.0 / qcomp=0.60 / qpmin=0 / qpmax=69 / qpstep=4 / cplxblur=20.0 / qblur=0.5 / ip_ratio=1.40 / aq=1:1.00
  25. Language                                 : English
  26. Default                                  : Yes
  27. Forced                                   : No

  28. Audio
  29. ID                                       : 2
  30. Format                                   : DTS
  31. Format/Info                              : Digital Theater Systems
  32. Mode                                     : 16
  33. Format settings, Endianness              : Big
  34. Codec ID                                 : A_DTS
  35. Duration                                 : 2 h 21 min
  36. Bit rate mode                            : Constant
  37. Bit rate                                 : 1 509 kb/s
  38. Channel(s)                               : 6 channels
  39. Channel positions                        : Front: L C R, Side: L R, LFE
  40. Sampling rate                            : 48.0 kHz
  41. Frame rate                               : 93.750 FPS (512 SPF)
  42. Bit depth                                : 24 bits
  43. Compression mode                         : Lossy
  44. Stream size                              : 1.49GB (11%)
  45. Language                                 : English
  46. Default                                  : Yes
  47. Forced                                   : No

  48. Text #1
  49. ID                                       : 3
  50. Format                                   : UTF-8
  51. Codec ID                                 : S_TEXT/UTF8
  52. Codec ID/Info                            : UTF-8 Plain Text
  53. Duration                                 : 2 h 8 min
  54. Bit rate                                 : 13 b/s
  55. Count of elements                        : 314
  56. Stream size                              : 13.0 KiB (0%)
  57. Title                                    : English
  58. Language                                 : English
  59. Default                                  : No
  60. Forced                                   : No

  61. Text #2
  62. ID                                       : 4
  63. Format                                   : UTF-8
  64. Codec ID                                 : S_TEXT/UTF8
  65. Codec ID/Info                            : UTF-8 Plain Text
  66. Duration                                 : 2 h 15 min
  67. Bit rate                                 : 17 b/s
  68. Count of elements                        : 511
  69. Stream size                              : 17.0 KiB (0%)
  70. Title                                    : English SDH
  71. Language                                 : English
  72. Default                                  : No
  73. Forced                                   : No

  74. Menu
  75. 00:00:00.000                             : en:00:00:00.000
  76. 00:11:32.233                             : en:00:11:32.233
  77. 00:21:01.677                             : en:00:21:01.677
  78. 00:32:13.598                             : en:00:32:13.598
  79. 00:40:27.634                             : en:00:40:27.634
  80. 00:54:14.126                             : en:00:54:14.126
  81. 01:07:14.906                             : en:01:07:14.906
  82. 01:19:06.575                             : en:01:19:06.575
  83. 01:35:46.532                             : en:01:35:46.532
  84. 01:47:21.060                             : en:01:47:21.060
  85. 02:02:30.718                             : en:02:02:30.718
  86. 02:16:22.716                             : en:02:16:22.716




复制代码
复制代码
054333jit5baam5wwz1zib.jpg







回复

使用道具 举报

懒得打字嘛,点击右侧快捷回复 【右侧内容,后台自定义】
您需要登录后才可以回帖 登录 | 立即加入

本版积分规则

Archiver|小黑屋| 蓝光电影网 |网站地图

Copyright © 2021 Comsenz Inc. Powered by 蓝光电影网

蓝光电影网

本站内容由用户自主分享和转载自互联网,转载目的在于传递更多信息,并不代表本网赞同其观点和对其真实性负责。

如有侵权、违反国家法律政策行为,请联系我们,我们会第一时间及时清除和处理!

举报反馈邮箱:[email protected]

快速回复 返回顶部 返回列表