找回密码

蓝光电影网

查看: 1954|回复: 8

无敌浩克/神奇绿巨人 The.Incredible.Hulk.2008.2160p.BluRay.x264.8bit.SDR.DTS-X.7.1-SWTYBLZ 40.36GB

[复制链接]
蓝光币
623
发表于 2018-4-7 10:03:59 | 显示全部楼层 |阅读模式
214635b55jdezxiod3c8es.jpg
◎译  名 无敌浩克/奇异绿伟人/绿伟人2/不成思议的绿伟人/新变形侠医
◎片  名 The Incredible Hulk
◎年  代 2008
◎产  地 美国
◎类  别 行动/科幻/惊悚
◎语  言 英语/葡萄牙语/西班牙语
◎上映日期 2008-06-13(美国)/2008-08-20(中国大陆)
◎IMDb评分  6.8/10 from 363,047 users
◎IMDb链接  http://www.imdb.com/title/tt0800080/
◎豆瓣评分 6.8/10 from 84,357 users
◎豆瓣链接 https://movie.douban.com/subject/1866475/
◎片  长 112 分钟
◎导  演 路易斯·莱特里尔 Louis Leterrier
◎主  演 爱德华·诺顿 Edward Norton
      丽芙·泰勒 Liv Tyler
      蒂姆·罗斯 Tim Roth
      威廉·赫特 William Hurt
      蒂姆·布雷克·尼尔森 Tim Blake Nelson

◎简  介

  在高华大学变异的履历总在重演,关于军方通缉的亦围绕在脑海,科学家Bruce Banner(爱德华·诺顿 Edward Norton 饰)就在这样的梦魇下在巴西一边控制着体内的伽马辐射带来的异常,一边尽力和纽约的蓝师长追求处理法子。
  在汽水生产厂房的他一日不谨慎割伤手指,让血滴入了汽水瓶,远销到美国的这瓶汽水表露了他的行迹。美国军方穷尽才能追捕他,还找来求胜心切的英国轰隆将军Emil Blonsky(蒂姆·罗斯 Tim Roth 饰)。被逼到死路的Bruce变身为绿伟人,Emil和其他甲士都大吃一惊。为了亲手擒住Bruce,Emil倡议给自己注入可使基因变异的样本。
  Bruce在美国藏匿时碰到旧女友Betty Ross(丽芙·泰勒 Liv Tyler 饰),Betty义无返顾地站在他一边,同时发现,她具有令他体内绿伟人平稳的气力。
  何处Emil已经被求胜蒙蔽了眼睛,他的挑衅加上美国军方极端想操纵Bruce体内异能作为残暴行动的决心,一场大战已经避无可避。



  1. Video
  2. ID                                       : 1
  3. Format                                   : AVC
  4. Format/Info                              : Advanced Video Codec
  5. Format profile                           : [email][email protected][/email]
  6. Format settings                          : CABAC / 5 Ref Frames
  7. Format settings, CABAC                   : Yes
  8. Format settings, RefFrames               : 5 frames
  9. Codec ID                                 : V_MPEG4/ISO/AVC
  10. Duration                                 : 1 h 52 min
  11. Bit rate                                 : 43.8 Mb/s
  12. Width                                    : 3 840 pixels
  13. Height                                   : 1 634 pixels
  14. Display aspect ratio                     : 2.35:1
  15. Frame rate mode                          : Constant
  16. Frame rate                               : 23.976 (24000/1001) FPS
  17. Color space                              : YUV
  18. Chroma subsampling                       : 4:2:0
  19. Bit depth                                : 8 bits
  20. Scan type                                : Progressive
  21. Bits/(Pixel*Frame)                       : 0.291
  22. Stream size                              : 34.3GB (85%)
  23. Title                                    : The.Incredible.Hulk.2008.2160p.BluRay.x264.8bit.SDR.DTS-X.7.1-SWTYBLZ
  24. Writing library                          : x264 core 148 r2748 97eaef2
  25. Encoding settings                        : cabac=1 / ref=5 / deblock=1:-1:-1 / analyse=0x3:0x113 / me=umh / subme=10 / psy=1 / psy_rd=1.00:0.15 / mixed_ref=1 / me_range=48 / chroma_me=1 / trellis=2 / 8x8dct=1 / cqm=0 / deadzone=21,11 / fast_pskip=1 / chroma_qp_offset=-3 / threads=51 / lookahead_threads=4 / sliced_threads=0 / nr=0 / decimate=0 / interlaced=0 / bluray_compat=0 / constrained_intra=0 / bframes=3 / b_pyramid=2 / b_adapt=2 / b_bias=0 / direct=3 / weightb=1 / open_gop=0 / weightp=2 / keyint=250 / keyint_min=23 / scenecut=40 / intra_refresh=0 / rc_lookahead=50 / rc=crf / mbtree=1 / crf=18.0 / qcomp=0.60 / qpmin=0 / qpmax=69 / qpstep=4 / ip_ratio=1.40 / aq=1:1.00
  26. Language                                 : English
  27. Default                                  : Yes
  28. Forced                                   : No

  29. Audio #1
  30. ID                                       : 2
  31. Format                                   : DTS
  32. Format/Info                              : Digital Theater Systems
  33. Format profile                           : X / MA / Core
  34. Codec ID                                 : A_DTS
  35. Duration                                 : 1 h 52 min
  36. Bit rate mode                            : Variable / Variable / Constant
  37. Bit rate                                 : 6 787 kb/s / 6 787 kb/s / 1 509 kb/s
  38. Channel(s)                               : Object Based / 8 channels / 6 channels
  39. Channel positions                        : Object Based / Front: L C R, Side: L R, Back: L R, LFE / Front: L C R, Side: L R, LFE
  40. Sampling rate                            :  / 48.0 kHz / 48.0 kHz
  41. Frame rate                               : 93.750 FPS (512 SPF)
  42. Bit depth                                :  / 24 bits / 24 bits
  43. Compression mode                         :  / Lossless / Lossy
  44. Stream size                              : 5.32GB (13%)
  45. Title                                    : The.Incredible.Hulk.2008.2160p.BluRay.x264.8bit.SDR.DTS-X.7.1-SWTYBLZ
  46. Language                                 : English
  47. Default                                  : Yes
  48. Forced                                   : No

  49. Audio #2
  50. ID                                       : 3
  51. Format                                   : AC-3
  52. Format/Info                              : Audio Coding 3
  53. Codec ID                                 : A_AC3
  54. Duration                                 : 1 h 52 min
  55. Bit rate mode                            : Constant
  56. Bit rate                                 : 640 kb/s
  57. Channel(s)                               : 6 channels
  58. Channel positions                        : Front: L C R, Side: L R, LFE
  59. Sampling rate                            : 48.0 kHz
  60. Frame rate                               : 31.250 FPS (1536 SPF)
  61. Bit depth                                : 16 bits
  62. Compression mode                         : Lossy
  63. Stream size                              : 514 MiB (1%)
  64. Title                                    : The.Incredible.Hulk.2008.2160p.BluRay.x264.8bit.SDR.DTS-X.7.1-SWTYBLZ
  65. Language                                 : English
  66. Service kind                             : Complete Main
  67. Default                                  : No
  68. Forced                                   : No

  69. Text #1
  70. ID                                       : 4
  71. Format                                   : UTF-8
  72. Codec ID                                 : S_TEXT/UTF8
  73. Codec ID/Info                            : UTF-8 Plain Text
  74. Duration                                 : 1 h 41 min
  75. Bit rate                                 : 29 b/s
  76. Count of elements                        : 725
  77. Stream size                              : 21.8 KiB (0%)
  78. Title                                    : English-SRT
  79. Language                                 : English
  80. Default                                  : Yes
  81. Forced                                   : No

  82. Text #2
  83. ID                                       : 5
  84. Format                                   : PGS
  85. Muxing mode                              : zlib
  86. Codec ID                                 : S_HDMV/PGS
  87. Codec ID/Info                            : Picture based subtitle format used on BDs/HD-DVDs
  88. Duration                                 : 1 h 44 min
  89. Bit rate                                 : 22.7 kb/s
  90. Count of elements                        : 1763
  91. Stream size                              : 16.9 MiB (0%)
  92. Title                                    : English-PGS
  93. Language                                 : English
  94. Default                                  : No
  95. Forced                                   : No

  96. Text #3
  97. ID                                       : 6
  98. Format                                   : PGS
  99. Muxing mode                              : zlib
  100. Codec ID                                 : S_HDMV/PGS
  101. Codec ID/Info                            : Picture based subtitle format used on BDs/HD-DVDs
  102. Duration                                 : 1 h 50 min
  103. Bit rate                                 : 19.3 kb/s
  104. Count of elements                        : 1580
  105. Stream size                              : 15.2 MiB (0%)
  106. Title                                    : Italian-PGS
  107. Language                                 : Italian
  108. Default                                  : No
  109. Forced                                   : No

  110. Text #4
  111. ID                                       : 7
  112. Format                                   : PGS
  113. Muxing mode                              : zlib
  114. Codec ID                                 : S_HDMV/PGS
  115. Codec ID/Info                            : Picture based subtitle format used on BDs/HD-DVDs
  116. Duration                                 : 1 h 50 min
  117. Bit rate                                 : 12.8 kb/s
  118. Count of elements                        : 1282
  119. Stream size                              : 10.1 MiB (0%)
  120. Title                                    : Dutch-PGS
  121. Language                                 : Dutch
  122. Default                                  : No
  123. Forced                                   : No

  124. Text #5
  125. ID                                       : 8
  126. Format                                   : PGS
  127. Muxing mode                              : zlib
  128. Codec ID                                 : S_HDMV/PGS
  129. Codec ID/Info                            : Picture based subtitle format used on BDs/HD-DVDs
  130. Duration                                 : 1 h 50 min
  131. Bit rate                                 : 15.7 kb/s
  132. Count of elements                        : 1383
  133. Stream size                              : 12.4 MiB (0%)
  134. Title                                    : Danish-PGS
  135. Language                                 : Danish
  136. Default                                  : No
  137. Forced                                   : No

  138. Text #6
  139. ID                                       : 9
  140. Format                                   : PGS
  141. Muxing mode                              : zlib
  142. Codec ID                                 : S_HDMV/PGS
  143. Codec ID/Info                            : Picture based subtitle format used on BDs/HD-DVDs
  144. Duration                                 : 1 h 50 min
  145. Bit rate                                 : 14.1 kb/s
  146. Count of elements                        : 1356
  147. Stream size                              : 11.2 MiB (0%)
  148. Title                                    : Finnish-PGS
  149. Language                                 : Finnish
  150. Default                                  : No
  151. Forced                                   : No

  152. Text #7
  153. ID                                       : 10
  154. Format                                   : PGS
  155. Muxing mode                              : zlib
  156. Codec ID                                 : S_HDMV/PGS
  157. Codec ID/Info                            : Picture based subtitle format used on BDs/HD-DVDs
  158. Duration                                 : 1 h 50 min
  159. Bit rate                                 : 18.8 kb/s
  160. Count of elements                        : 1578
  161. Stream size                              : 14.8 MiB (0%)
  162. Title                                    : Norwegian-PGS
  163. Language                                 : Norwegian
  164. Default                                  : No
  165. Forced                                   : No

  166. Text #8
  167. ID                                       : 11
  168. Format                                   : PGS
  169. Muxing mode                              : zlib
  170. Codec ID                                 : S_HDMV/PGS
  171. Codec ID/Info                            : Picture based subtitle format used on BDs/HD-DVDs
  172. Duration                                 : 1 h 50 min
  173. Bit rate                                 : 16.0 kb/s
  174. Count of elements                        : 1458
  175. Stream size                              : 12.6 MiB (0%)
  176. Title                                    : Swedish-PGS
  177. Language                                 : Swedish
  178. Default                                  : No
  179. Forced                                   : No

  180. Text #9
  181. ID                                       : 12
  182. Format                                   : PGS
  183. Muxing mode                              : zlib
  184. Codec ID                                 : S_HDMV/PGS
  185. Codec ID/Info                            : Picture based subtitle format used on BDs/HD-DVDs
  186. Duration                                 : 1 h 44 min
  187. Bit rate                                 : 17.5 kb/s
  188. Count of elements                        : 1402
  189. Stream size                              : 13.1 MiB (0%)
  190. Title                                    : Portuguese-PGS
  191. Language                                 : Portuguese
  192. Default                                  : No
  193. Forced                                   : No

  194. Text #10
  195. ID                                       : 13
  196. Format                                   : PGS
  197. Muxing mode                              : zlib
  198. Codec ID                                 : S_HDMV/PGS
  199. Codec ID/Info                            : Picture based subtitle format used on BDs/HD-DVDs
  200. Duration                                 : 1 h 50 min
  201. Bit rate                                 : 19.8 kb/s
  202. Count of elements                        : 1588
  203. Stream size                              : 15.6 MiB (0%)
  204. Title                                    : Turkish-PGS
  205. Language                                 : Turkish
  206. Default                                  : No
  207. Forced                                   : No

  208. Text #11
  209. ID                                       : 14
  210. Format                                   : PGS
  211. Muxing mode                              : zlib
  212. Codec ID                                 : S_HDMV/PGS
  213. Codec ID/Info                            : Picture based subtitle format used on BDs/HD-DVDs
  214. Duration                                 : 1 h 50 min
  215. Bit rate                                 : 17.4 kb/s
  216. Count of elements                        : 1586
  217. Stream size                              : 13.7 MiB (0%)
  218. Title                                    : Czech-PGS
  219. Language                                 : Czech
  220. Default                                  : No
  221. Forced                                   : No

  222. Text #12
  223. ID                                       : 15
  224. Format                                   : PGS
  225. Muxing mode                              : zlib
  226. Codec ID                                 : S_HDMV/PGS
  227. Codec ID/Info                            : Picture based subtitle format used on BDs/HD-DVDs
  228. Duration                                 : 1 h 50 min
  229. Bit rate                                 : 13.3 kb/s
  230. Count of elements                        : 1519
  231. Stream size                              : 10.6 MiB (0%)
  232. Title                                    : Chinese-PGS
  233. Language                                 : Chinese
  234. Default                                  : No
  235. Forced                                   : No

  236. Text #13
  237. ID                                       : 16
  238. Format                                   : PGS
  239. Muxing mode                              : zlib
  240. Codec ID                                 : S_HDMV/PGS
  241. Codec ID/Info                            : Picture based subtitle format used on BDs/HD-DVDs
  242. Duration                                 : 1 h 51 min
  243. Bit rate                                 : 13.4 kb/s
  244. Count of elements                        : 1594
  245. Stream size                              : 10.7 MiB (0%)
  246. Title                                    : Korean-PGS
  247. Language                                 : Korean
  248. Default                                  : No
  249. Forced                                   : No

  250. Text #14
  251. ID                                       : 17
  252. Format                                   : PGS
  253. Muxing mode                              : zlib
  254. Codec ID                                 : S_HDMV/PGS
  255. Codec ID/Info                            : Picture based subtitle format used on BDs/HD-DVDs
  256. Duration                                 : 1 h 50 min
  257. Bit rate                                 : 19.1 kb/s
  258. Count of elements                        : 1456
  259. Stream size                              : 15.2 MiB (0%)
  260. Title                                    : Greek-PGS
  261. Language                                 : Greek
  262. Default                                  : No
  263. Forced                                   : No

  264. Menu
  265. 00:00:00.000                             : en:Chapter 1
  266. 00:05:47.638                             : en:Chapter 2
  267. 00:12:50.311                             : en:Chapter 3
  268. 00:16:08.759                             : en:Chapter 4
  269. 00:21:15.023                             : en:Chapter 5
  270. 00:26:25.792                             : en:Chapter 6
  271. 00:30:40.880                             : en:Chapter 7
  272. 00:34:09.547                             : en:Chapter 8
  273. 00:40:20.167                             : en:Chapter 9
  274. 00:47:31.306                             : en:Chapter 10
  275. 00:55:55.185                             : en:Chapter 11
  276. 01:02:25.450                             : en:Chapter 12
  277. 01:07:54.779                             : en:Chapter 13
  278. 01:12:18.917                             : en:Chapter 14
  279. 01:19:51.077                             : en:Chapter 15
  280. 01:24:01.036                             : en:Chapter 16
  281. 01:30:25.545                             : en:Chapter 17
  282. 01:37:01.982                             : en:Chapter 18
  283. 01:42:39.111                             : en:Chapter 19
  284. 01:45:33.160                             : en:Chapter 20

复制代码
复制代码
214636rhi11n9hv44zjmij.jpg 214637hhdcuvgud5guauvz.jpg 214638h50kefc95m5ew80e.jpg 214639w8xkvfvpv2pyxfx9.jpg 214640l09fpdobi1omqcoj.jpg 214642o05o93odomokz3cq.jpg 214643dokrb6l1eutebeem.jpg






回复

使用道具 举报

蓝光币
49
发表于 2018-4-9 20:50:16 | 显示全部楼层

真是难得给力的帖子啊。
回复 支持 反对

使用道具 举报

蓝光币
1323
发表于 2018-5-18 19:37:33 | 显示全部楼层
强烈支持楼主ing……
回复 支持 反对

使用道具 举报

懒得打字嘛,点击右侧快捷回复 【右侧内容,后台自定义】
您需要登录后才可以回帖 登录 | 立即加入

本版积分规则

Archiver|小黑屋| 蓝光电影网 |网站地图

Copyright © 2021 Comsenz Inc. Powered by 蓝光电影网

蓝光电影网

本站内容由用户自主分享和转载自互联网,转载目的在于传递更多信息,并不代表本网赞同其观点和对其真实性负责。

如有侵权、违反国家法律政策行为,请联系我们,我们会第一时间及时清除和处理!

举报反馈邮箱:[email protected]

快速回复 返回顶部 返回列表