找回密码

蓝光电影网

查看: 3349|回复: 2

无敌浩克/神奇绿巨人 The.Incredible.Hulk.2008.2160p.BluRay.x265.10bit.SDR.DTS-X.7.1-SWTYBLZ 34.69GB

[复制链接]
蓝光币
623
发表于 2018-4-7 10:04:22 | 显示全部楼层 |阅读模式
214710l5nwcvxozcxxecvv.jpg
◎译  名 无敌浩克/奇异绿伟人/绿伟人2/不成思议的绿伟人/新变形侠医
◎片  名 The Incredible Hulk
◎年  代 2008
◎产  地 美国
◎类  别 行动/科幻/惊悚
◎语  言 英语/葡萄牙语/西班牙语
◎上映日期 2008-06-13(美国)/2008-08-20(中国大陆)
◎IMDb评分  6.8/10 from 363,064 users
◎IMDb链接  http://www.imdb.com/title/tt0800080/
◎豆瓣评分 6.8/10 from 84,357 users
◎豆瓣链接 https://movie.douban.com/subject/1866475/
◎片  长 112 分钟
◎导  演 路易斯·莱特里尔 Louis Leterrier
◎主  演 爱德华·诺顿 Edward Norton
      丽芙·泰勒 Liv Tyler
      蒂姆·罗斯 Tim Roth
      威廉·赫特 William Hurt
      蒂姆·布雷克·尼尔森 Tim Blake Nelson

◎简  介

  在高华大学变异的履历总在重演,关于军方通缉的亦围绕在脑海,科学家Bruce Banner(爱德华·诺顿 Edward Norton 饰)就在这样的梦魇下在巴西一边控制着体内的伽马辐射带来的异常,一边尽力和纽约的蓝师长追求处理法子。
  在汽水生产厂房的他一日不谨慎割伤手指,让血滴入了汽水瓶,远销到美国的这瓶汽水表露了他的行迹。美国军方穷尽才能追捕他,还找来求胜心切的英国轰隆将军Emil Blonsky(蒂姆·罗斯 Tim Roth 饰)。被逼到死路的Bruce变身为绿伟人,Emil和其他甲士都大吃一惊。为了亲手擒住Bruce,Emil倡议给自己注入可使基因变异的样本。
  Bruce在美国藏匿时碰到旧女友Betty Ross(丽芙·泰勒 Liv Tyler 饰),Betty义无返顾地站在他一边,同时发现,她具有令他体内绿伟人平稳的气力。
  何处Emil已经被求胜蒙蔽了眼睛,他的挑衅加上美国军方极端想操纵Bruce体内异能作为残暴行动的决心,一场大战已经避无可避。



  1. Video
  2. ID                                       : 1
  3. Format                                   : HEVC
  4. Format/Info                              : High Efficiency Video Coding
  5. Format profile                           : Main [email][email protected][/email]@High
  6. Codec ID                                 : V_MPEGH/ISO/HEVC
  7. Duration                                 : 1 h 52 min
  8. Bit rate                                 : 36.6 Mb/s
  9. Width                                    : 3 840 pixels
  10. Height                                   : 1 634 pixels
  11. Display aspect ratio                     : 2.35:1
  12. Frame rate mode                          : Constant
  13. Frame rate                               : 23.976 (24000/1001) FPS
  14. Color space                              : YUV
  15. Chroma subsampling                       : 4:2:0
  16. Bit depth                                : 10 bits
  17. Bits/(Pixel*Frame)                       : 0.243
  18. Stream size                              : 28.7GB (83%)
  19. Title                                    : The.Incredible.Hulk.2008.2160p.BluRay.x265.10bit.SDR.DTS-X.7.1-SWTYBLZ
  20. Writing library                          : x265 2.5+4-b4a5bcfe29c7:[Windows][GCC 4.9.3][64 bit] 10bit
  21. Encoding settings                        : cpuid=1173503 / frame-threads=16 / numa-pools=24,24,24,24 / wpp / no-pmode / no-pme / no-psnr / no-ssim / log-level=2 / input-csp=1 / input-res=3840x1634 / interlace=0 / total-frames=0 / level-idc=51 / high-tier=1 / uhd-bd=0 / ref=3 / no-allow-non-conformance / repeat-headers / annexb / aud / hrd / info / hash=0 / no-temporal-layers / no-open-gop / min-keyint=1 / keyint=24 / bframes=4 / b-adapt=2 / b-pyramid / bframe-bias=0 / rc-lookahead=25 / lookahead-slices=4 / scenecut=40 / no-intra-refresh / ctu=64 / min-cu-size=8 / no-rect / no-amp / max-tu-size=32 / tu-inter-depth=1 / tu-intra-depth=1 / limit-tu=0 / rdoq-level=0 / dynamic-rd=0.00 / no-ssim-rd / signhide / no-tskip / nr-intra=0 / nr-inter=0 / no-constrained-intra / strong-intra-smoothing / max-merge=2 / limit-refs=3 / no-limit-modes / me=1 / subme=2 / merange=57 / temporal-mvp / weightp / no-weightb / no-analyze-src-pics / deblock=0:0 / no-sao / no-sao-non-deblock / rd=3 / no-early-skip / rskip / no-fast-intra / no-tskip-fast / no-cu-lossless / no-b-intra / rdpenalty=0 / psy-rd=2.00 / psy-rdoq=0.00 / no-rd-refine / analysis-reuse-mode=0 / no-lossless / cbqpoffs=0 / crqpoffs=0 / rc=crf / crf=16.0 / qcomp=0.60 / qpstep=4 / stats-write=0 / stats-read=0 / vbv-maxrate=160000 / vbv-bufsize=160000 / vbv-init=0.9 / crf-max=0.0 / crf-min=0.0 / ipratio=1.40 / pbratio=1.30 / aq-mode=1 / aq-strength=1.00 / cutree / zone-count=0 / no-strict-cbr / qg-size=32 / no-rc-grain / qpmax=69 / qpmin=0 / no-const-vbv / sar=1 / overscan=0 / videoformat=5 / range=0 / colorprim=2 / transfer=2 / colormatrix=2 / chromaloc=0 / display-window=0 / max-cll=0,0 / min-luma=0 / max-luma=1023 / log2-max-poc-lsb=8 / vui-timing-info / vui-hrd-info / slices=1 / opt-qp-pps / opt-ref-list-length-pps / no-multi-pass-opt-rps / scenecut-bias=0.05 / no-opt-cu-delta-qp / no-aq-motion / no-hdr / no-hdr-opt / no-dhdr10-opt / analysis-reuse-level=5 / scale-factor=0 / refine-intra=0 / refine-inter=0 / refine-mv=0 / no-limit-sao / ctu-info=0
  22. Default                                  : Yes
  23. Forced                                   : No

  24. Audio #1
  25. ID                                       : 2
  26. Format                                   : DTS
  27. Format/Info                              : Digital Theater Systems
  28. Format profile                           : X / MA / Core
  29. Codec ID                                 : A_DTS
  30. Duration                                 : 1 h 52 min
  31. Bit rate mode                            : Variable / Variable / Constant
  32. Bit rate                                 : 6 787 kb/s / 6 787 kb/s / 1 509 kb/s
  33. Channel(s)                               : Object Based / 8 channels / 6 channels
  34. Channel positions                        : Object Based / Front: L C R, Side: L R, Back: L R, LFE / Front: L C R, Side: L R, LFE
  35. Sampling rate                            :  / 48.0 kHz / 48.0 kHz
  36. Frame rate                               : 93.750 FPS (512 SPF)
  37. Bit depth                                :  / 24 bits / 24 bits
  38. Compression mode                         :  / Lossless / Lossy
  39. Stream size                              : 5.32GB (15%)
  40. Title                                    : The.Incredible.Hulk.2008.2160p.BluRay.x265.10bit.SDR.DTS-X.7.1-SWTYBLZ
  41. Language                                 : English
  42. Default                                  : Yes
  43. Forced                                   : No

  44. Audio #2
  45. ID                                       : 3
  46. Format                                   : AC-3
  47. Format/Info                              : Audio Coding 3
  48. Codec ID                                 : A_AC3
  49. Duration                                 : 1 h 52 min
  50. Bit rate mode                            : Constant
  51. Bit rate                                 : 640 kb/s
  52. Channel(s)                               : 6 channels
  53. Channel positions                        : Front: L C R, Side: L R, LFE
  54. Sampling rate                            : 48.0 kHz
  55. Frame rate                               : 31.250 FPS (1536 SPF)
  56. Bit depth                                : 16 bits
  57. Compression mode                         : Lossy
  58. Stream size                              : 514 MiB (1%)
  59. Title                                    : The.Incredible.Hulk.2008.2160p.BluRay.x265.10bit.SDR.DTS-X.7.1-SWTYBLZ
  60. Language                                 : English
  61. Service kind                             : Complete Main
  62. Default                                  : No
  63. Forced                                   : No

  64. Text #1
  65. ID                                       : 4
  66. Format                                   : UTF-8
  67. Codec ID                                 : S_TEXT/UTF8
  68. Codec ID/Info                            : UTF-8 Plain Text
  69. Duration                                 : 1 h 41 min
  70. Bit rate                                 : 29 b/s
  71. Count of elements                        : 725
  72. Stream size                              : 21.8 KiB (0%)
  73. Title                                    : English-SRT
  74. Language                                 : English
  75. Default                                  : Yes
  76. Forced                                   : No

  77. Text #2
  78. ID                                       : 5
  79. Format                                   : PGS
  80. Muxing mode                              : zlib
  81. Codec ID                                 : S_HDMV/PGS
  82. Codec ID/Info                            : Picture based subtitle format used on BDs/HD-DVDs
  83. Duration                                 : 1 h 44 min
  84. Bit rate                                 : 22.7 kb/s
  85. Count of elements                        : 1763
  86. Stream size                              : 16.9 MiB (0%)
  87. Title                                    : English-PGS
  88. Language                                 : English
  89. Default                                  : No
  90. Forced                                   : No

  91. Text #3
  92. ID                                       : 6
  93. Format                                   : PGS
  94. Muxing mode                              : zlib
  95. Codec ID                                 : S_HDMV/PGS
  96. Codec ID/Info                            : Picture based subtitle format used on BDs/HD-DVDs
  97. Duration                                 : 1 h 50 min
  98. Bit rate                                 : 19.3 kb/s
  99. Count of elements                        : 1580
  100. Stream size                              : 15.2 MiB (0%)
  101. Title                                    : Italian-PGS
  102. Language                                 : Italian
  103. Default                                  : No
  104. Forced                                   : No

  105. Text #4
  106. ID                                       : 7
  107. Format                                   : PGS
  108. Muxing mode                              : zlib
  109. Codec ID                                 : S_HDMV/PGS
  110. Codec ID/Info                            : Picture based subtitle format used on BDs/HD-DVDs
  111. Duration                                 : 1 h 50 min
  112. Bit rate                                 : 12.8 kb/s
  113. Count of elements                        : 1282
  114. Stream size                              : 10.1 MiB (0%)
  115. Title                                    : Dutch-PGS
  116. Language                                 : Dutch
  117. Default                                  : No
  118. Forced                                   : No

  119. Text #5
  120. ID                                       : 8
  121. Format                                   : PGS
  122. Muxing mode                              : zlib
  123. Codec ID                                 : S_HDMV/PGS
  124. Codec ID/Info                            : Picture based subtitle format used on BDs/HD-DVDs
  125. Duration                                 : 1 h 50 min
  126. Bit rate                                 : 15.7 kb/s
  127. Count of elements                        : 1383
  128. Stream size                              : 12.4 MiB (0%)
  129. Title                                    : Danish-PGS
  130. Language                                 : Danish
  131. Default                                  : No
  132. Forced                                   : No

  133. Text #6
  134. ID                                       : 9
  135. Format                                   : PGS
  136. Muxing mode                              : zlib
  137. Codec ID                                 : S_HDMV/PGS
  138. Codec ID/Info                            : Picture based subtitle format used on BDs/HD-DVDs
  139. Duration                                 : 1 h 50 min
  140. Bit rate                                 : 14.1 kb/s
  141. Count of elements                        : 1356
  142. Stream size                              : 11.2 MiB (0%)
  143. Title                                    : Finnish-PGS
  144. Language                                 : Finnish
  145. Default                                  : No
  146. Forced                                   : No

  147. Text #7
  148. ID                                       : 10
  149. Format                                   : PGS
  150. Muxing mode                              : zlib
  151. Codec ID                                 : S_HDMV/PGS
  152. Codec ID/Info                            : Picture based subtitle format used on BDs/HD-DVDs
  153. Duration                                 : 1 h 50 min
  154. Bit rate                                 : 18.8 kb/s
  155. Count of elements                        : 1578
  156. Stream size                              : 14.8 MiB (0%)
  157. Title                                    : Norwegian-PGS
  158. Language                                 : Norwegian
  159. Default                                  : No
  160. Forced                                   : No

  161. Text #8
  162. ID                                       : 11
  163. Format                                   : PGS
  164. Muxing mode                              : zlib
  165. Codec ID                                 : S_HDMV/PGS
  166. Codec ID/Info                            : Picture based subtitle format used on BDs/HD-DVDs
  167. Duration                                 : 1 h 50 min
  168. Bit rate                                 : 16.0 kb/s
  169. Count of elements                        : 1458
  170. Stream size                              : 12.6 MiB (0%)
  171. Title                                    : Swedish-PGS
  172. Language                                 : Swedish
  173. Default                                  : No
  174. Forced                                   : No

  175. Text #9
  176. ID                                       : 12
  177. Format                                   : PGS
  178. Muxing mode                              : zlib
  179. Codec ID                                 : S_HDMV/PGS
  180. Codec ID/Info                            : Picture based subtitle format used on BDs/HD-DVDs
  181. Duration                                 : 1 h 44 min
  182. Bit rate                                 : 17.5 kb/s
  183. Count of elements                        : 1402
  184. Stream size                              : 13.1 MiB (0%)
  185. Title                                    : Portuguese-PGS
  186. Language                                 : Portuguese
  187. Default                                  : No
  188. Forced                                   : No

  189. Text #10
  190. ID                                       : 13
  191. Format                                   : PGS
  192. Muxing mode                              : zlib
  193. Codec ID                                 : S_HDMV/PGS
  194. Codec ID/Info                            : Picture based subtitle format used on BDs/HD-DVDs
  195. Duration                                 : 1 h 50 min
  196. Bit rate                                 : 19.8 kb/s
  197. Count of elements                        : 1588
  198. Stream size                              : 15.6 MiB (0%)
  199. Title                                    : Turkish-PGS
  200. Language                                 : Turkish
  201. Default                                  : No
  202. Forced                                   : No

  203. Text #11
  204. ID                                       : 14
  205. Format                                   : PGS
  206. Muxing mode                              : zlib
  207. Codec ID                                 : S_HDMV/PGS
  208. Codec ID/Info                            : Picture based subtitle format used on BDs/HD-DVDs
  209. Duration                                 : 1 h 50 min
  210. Bit rate                                 : 17.4 kb/s
  211. Count of elements                        : 1586
  212. Stream size                              : 13.7 MiB (0%)
  213. Title                                    : Czech-PGS
  214. Language                                 : Czech
  215. Default                                  : No
  216. Forced                                   : No

  217. Text #12
  218. ID                                       : 15
  219. Format                                   : PGS
  220. Muxing mode                              : zlib
  221. Codec ID                                 : S_HDMV/PGS
  222. Codec ID/Info                            : Picture based subtitle format used on BDs/HD-DVDs
  223. Duration                                 : 1 h 50 min
  224. Bit rate                                 : 13.3 kb/s
  225. Count of elements                        : 1519
  226. Stream size                              : 10.6 MiB (0%)
  227. Title                                    : Chinese-PGS
  228. Language                                 : Chinese
  229. Default                                  : No
  230. Forced                                   : No

  231. Text #13
  232. ID                                       : 16
  233. Format                                   : PGS
  234. Muxing mode                              : zlib
  235. Codec ID                                 : S_HDMV/PGS
  236. Codec ID/Info                            : Picture based subtitle format used on BDs/HD-DVDs
  237. Duration                                 : 1 h 51 min
  238. Bit rate                                 : 13.4 kb/s
  239. Count of elements                        : 1594
  240. Stream size                              : 10.7 MiB (0%)
  241. Title                                    : Korean-PGS
  242. Language                                 : Korean
  243. Default                                  : No
  244. Forced                                   : No

  245. Text #14
  246. ID                                       : 17
  247. Format                                   : PGS
  248. Muxing mode                              : zlib
  249. Codec ID                                 : S_HDMV/PGS
  250. Codec ID/Info                            : Picture based subtitle format used on BDs/HD-DVDs
  251. Duration                                 : 1 h 50 min
  252. Bit rate                                 : 19.1 kb/s
  253. Count of elements                        : 1456
  254. Stream size                              : 15.2 MiB (0%)
  255. Title                                    : Greek-PGS
  256. Language                                 : Greek
  257. Default                                  : No
  258. Forced                                   : No

  259. Menu
  260. 00:00:00.000                             : en:Chapter 1
  261. 00:05:47.638                             : en:Chapter 2
  262. 00:12:50.311                             : en:Chapter 3
  263. 00:16:08.759                             : en:Chapter 4
  264. 00:21:15.023                             : en:Chapter 5
  265. 00:26:25.792                             : en:Chapter 6
  266. 00:30:40.880                             : en:Chapter 7
  267. 00:34:09.547                             : en:Chapter 8
  268. 00:40:20.167                             : en:Chapter 9
  269. 00:47:31.306                             : en:Chapter 10
  270. 00:55:55.185                             : en:Chapter 11
  271. 01:02:25.450                             : en:Chapter 12
  272. 01:07:54.779                             : en:Chapter 13
  273. 01:12:18.917                             : en:Chapter 14
  274. 01:19:51.077                             : en:Chapter 15
  275. 01:24:01.036                             : en:Chapter 16
  276. 01:30:25.545                             : en:Chapter 17
  277. 01:37:01.982                             : en:Chapter 18
  278. 01:42:39.111                             : en:Chapter 19
  279. 01:45:33.160                             : en:Chapter 20

复制代码
复制代码
214711s1dnda0rrd9oo90d.jpg 214712grqvzb92k43qoq93.jpg 214713wzmrgl6zvqm5gv30.jpg 214714cuybmrywiyw86wpf.jpg 214715yed47ybutekywykk.jpg 214717nmrlln0i5p6uyy7i.jpg 214718j70wk1bzyb0fzwlf.jpg







回复

使用道具 举报

蓝光币
184
发表于 2018-4-9 17:58:23 | 显示全部楼层
啊哈哈哈哈哈哈,感谢楼主分享,啊哈哈哈哈哈哈
回复 支持 反对

使用道具 举报

蓝光币
821
发表于 2018-4-15 11:04:37 | 显示全部楼层
强烈支持楼主ing……
回复 支持 反对

使用道具 举报

懒得打字嘛,点击右侧快捷回复 【右侧内容,后台自定义】
您需要登录后才可以回帖 登录 | 立即加入

本版积分规则

Archiver|小黑屋| 蓝光电影网 |网站地图

Copyright © 2021 Comsenz Inc. Powered by 蓝光电影网

蓝光电影网

本站内容由用户自主分享和转载自互联网,转载目的在于传递更多信息,并不代表本网赞同其观点和对其真实性负责。

如有侵权、违反国家法律政策行为,请联系我们,我们会第一时间及时清除和处理!

举报反馈邮箱:[email protected]

快速回复 返回顶部 返回列表