找回密码

蓝光电影网

查看: 5692|回复: 6

马戏之王/大娱乐家 The.Greatest.Showman.2017.2160p.BluRay.REMUX.HEVC.DTS-HD.MA.TrueHD.7.1.Atmos-FGT 55.95GB

[复制链接]
蓝光币
623
发表于 2018-4-7 10:06:32 | 显示全部楼层 |阅读模式
025442wvy9ffdy5fy9zj9z.jpg
◎译  名 马戏之王/大文娱家(港/台)/地球最强秀/地球最强马戏演员/全球最巨大的马戏演员/大秀之王
◎片  名 The Greatest Showman
◎年  代 2017
◎产  地 美国
◎类  别 剧情/列传/歌舞
◎语  言 英语
◎上映日期 2017-12-20(美国)/2018-02-01(中国大陆)
◎IMDb评分  7.8/10 from 98,577 users
◎IMDb链接  http://www.imdb.com/title/tt1485796/
◎豆瓣评分 7.9/10 from 67,957 users
◎豆瓣链接 https://movie.douban.com/subject/3914513/
◎片  长 105分钟/106分钟(中国大陆)
◎导  演 迈克尔·格雷西 Michael Gracey
◎主  演 休·杰克曼 Hugh Jackman
      米歇尔·威廉姆斯 Michelle Williams
      扎克·埃夫隆 Zac Efron
      赞达亚 Zendaya
      丽贝卡·弗格森 Rebecca Ferguson
      奥丝汀·约翰森 Austyn Johnson
      卡梅伦·丝蕾 Cameron Seely
      基拉·塞特尔 Keala Settle
      萨姆·汉弗莱 Sam Humphrey
      叶海亚·阿卜杜勒-迈丁 Yahya Abdul-Mateen II
      埃里克·安德森 Eric Anderson
      伊利斯·鲁宾 Ellis Rubin
      斯凯勒·杜恩 Skylar Dunn
      丹尼尔·埃维里奇 Daniel Everidge
      拉杜·斯平格尔 Radu Spinghel
      小森优作 Yusaku Komori
      丹尼尔·松 Danial Son
      保罗·斯帕克斯 Paul Sparks
      威尔·斯文森 Will Swenson

◎简  介

  《马戏之王》取材自真人真事,好莱坞万能巨星休·杰克曼在片中饰演“马戏团鼻祖”、传奇人物P.T.巴纳姆。故事报告了身处社会底层的巴纳姆依靠自己无穷设想力和锲而不舍的精神,从经营博物馆到一手开创天下上第一家马戏团的故事。巴纳姆的奇思妙想最起头并不被公共所认可,几近没人花钱欣赏,他的家人好友帮他度过一次次绝境。在履历了一系列挫折、与合作伙伴的分歧以后,秉持胡想的他终究成为全美甚至全天下最为著名的“造梦大师”。

◎获奖情况

  第90届奥斯卡金像奖  (2018)
  最好原创歌曲(提名) 本吉·帕塞克 / 贾斯廷·保罗

  第75届金球奖  (2018)
  电影类 最好音乐/笑剧片(提名)
  电影类 音乐/笑剧片最好男配角(提名) 休·杰克曼
  电影类 最好原创歌曲

  第23届美国批评家挑选电影奖  (2018)
  最好歌曲(提名)


  1. Video
  2. ID                                       : 1
  3. Format                                   : HEVC
  4. Format/Info                              : High Efficiency Video Coding
  5. Format profile                           : Main [email][email protected][/email]@High
  6. Codec ID                                 : V_MPEGH/ISO/HEVC
  7. Duration                                 : 1 h 44 min
  8. Bit rate                                 : 58.2 Mb/s
  9. Width                                    : 3 840 pixels
  10. Height                                   : 2 160 pixels
  11. Display aspect ratio                     : 16:9
  12. Frame rate mode                          : Constant
  13. Frame rate                               : 23.976 (24000/1001) FPS
  14. Color space                              : YUV
  15. Chroma subsampling                       : 4:2:0 (Type 2)
  16. Bit depth                                : 10 bits
  17. Bits/(Pixel*Frame)                       : 0.292
  18. Stream size                              : 42.6GB (76%)
  19. Title                                    : The.Greatest.Showman.2017.2160p.BluRay.REMUX.HEVC.DTS-HD.MA.TrueHD.7.1.Atmos-FGT
  20. Default                                  : Yes
  21. Forced                                   : No
  22. Color range                              : Limited
  23. Color primaries                          : BT.2020
  24. Transfer characteristics                 : PQ
  25. Matrix coefficients                      : BT.2020 non-constant
  26. Mastering display color primaries        : Display P3
  27. Mastering display luminance              : min: 0.0050 cd/m2, max: 1000 cd/m2

  28. Audio #1
  29. ID                                       : 2
  30. Format                                   : TrueHD
  31. Format profile                           : TrueHD+Atmos / TrueHD
  32. Codec ID                                 : A_TRUEHD
  33. Duration                                 : 1 h 44 min
  34. Bit rate mode                            : Variable
  35. Bit rate                                 : 4 572 kb/s
  36. Maximum bit rate                         : 7 779 kb/s
  37. Channel(s)                               : Object Based / 8 channels
  38. Channel positions                        : Object Based / Front: L C R, Side: L R, Back: L R, LFE
  39. Sampling rate                            :  / 48.0 kHz
  40. Frame rate                               : 1 200.000 FPS (40 SPF)
  41. Compression mode                         : Lossless
  42. Stream size                              : 3.35GB (6%)
  43. Title                                    : The.Greatest.Showman.2017.2160p.BluRay.REMUX.HEVC.DTS-HD.MA.TrueHD.7.1.Atmos-FGT
  44. Language                                 : English
  45. Default                                  : Yes
  46. Forced                                   : No

  47. Audio #2
  48. ID                                       : 3
  49. Format                                   : DTS
  50. Format/Info                              : Digital Theater Systems
  51. Format profile                           : MA / Core
  52. Codec ID                                 : A_DTS
  53. Duration                                 : 1 h 44 min
  54. Bit rate mode                            : Variable / Constant
  55. Bit rate                                 : 4 427 kb/s / 1 509 kb/s
  56. Channel(s)                               : 8 channels / 6 channels
  57. Channel positions                        : Front: L C R, Side: L R, Back: L R, LFE / Front: L C R, Side: L R, LFE
  58. Sampling rate                            : 48.0 kHz
  59. Frame rate                               : 93.750 FPS (512 SPF)
  60. Bit depth                                : 24 bits
  61. Compression mode                         : Lossless / Lossy
  62. Stream size                              : 3.24GB (6%)
  63. Title                                    : The.Greatest.Showman.2017.2160p.BluRay.REMUX.HEVC.DTS-HD.MA.TrueHD.7.1.Atmos-FGT
  64. Language                                 : English
  65. Default                                  : No
  66. Forced                                   : No

  67. Audio #3
  68. ID                                       : 4
  69. Format                                   : AC-3
  70. Format/Info                              : Audio Coding 3
  71. Codec ID                                 : A_AC3
  72. Duration                                 : 1 h 44 min
  73. Bit rate mode                            : Constant
  74. Bit rate                                 : 640 kb/s
  75. Channel(s)                               : 6 channels
  76. Channel positions                        : Front: L C R, Side: L R, LFE
  77. Sampling rate                            : 48.0 kHz
  78. Frame rate                               : 31.250 FPS (1536 SPF)
  79. Bit depth                                : 16 bits
  80. Compression mode                         : Lossy
  81. Stream size                              : 480 MiB (1%)
  82. Title                                    : The.Greatest.Showman.2017.2160p.BluRay.REMUX.HEVC.DTS-HD.MA.TrueHD.7.1.Atmos-FGT
  83. Language                                 : English
  84. Service kind                             : Complete Main
  85. Default                                  : No
  86. Forced                                   : No

  87. Audio #4
  88. ID                                       : 5
  89. Format                                   : DTS
  90. Format/Info                              : Digital Theater Systems
  91. Format profile                           : MA / Core
  92. Codec ID                                 : A_DTS
  93. Duration                                 : 1 h 44 min
  94. Bit rate mode                            : Variable / Constant
  95. Bit rate                                 : 2 114 kb/s / 1 509 kb/s
  96. Channel(s)                               : 2 channels
  97. Channel positions                        : Front: L R
  98. Sampling rate                            : 48.0 kHz
  99. Frame rate                               : 93.750 FPS (512 SPF)
  100. Bit depth                                : 24 bits
  101. Compression mode                         : Lossless / Lossy
  102. Stream size                              : 1.55GB (3%)
  103. Title                                    : The.Greatest.Showman.2017.2160p.BluRay.REMUX.HEVC.DTS-HD.MA.TrueHD.7.1.Atmos-FGT
  104. Language                                 : English
  105. Default                                  : No
  106. Forced                                   : No

  107. Audio #5
  108. ID                                       : 6
  109. Format                                   : AC-3
  110. Format/Info                              : Audio Coding 3
  111. Codec ID                                 : A_AC3
  112. Duration                                 : 1 h 44 min
  113. Bit rate mode                            : Constant
  114. Bit rate                                 : 448 kb/s
  115. Channel(s)                               : 6 channels
  116. Channel positions                        : Front: L C R, Side: L R, LFE
  117. Sampling rate                            : 48.0 kHz
  118. Frame rate                               : 31.250 FPS (1536 SPF)
  119. Bit depth                                : 16 bits
  120. Compression mode                         : Lossy
  121. Delay relative to video                  : 14 ms
  122. Stream size                              : 336 MiB (1%)
  123. Title                                    : The.Greatest.Showman.2017.2160p.BluRay.REMUX.HEVC.DTS-HD.MA.TrueHD.7.1.Atmos-FGT
  124. Language                                 : English
  125. Service kind                             : Complete Main
  126. Default                                  : No
  127. Forced                                   : No

  128. Audio #6
  129. ID                                       : 7
  130. Format                                   : AC-3
  131. Format/Info                              : Audio Coding 3
  132. Codec ID                                 : A_AC3
  133. Duration                                 : 1 h 44 min
  134. Bit rate mode                            : Constant
  135. Bit rate                                 : 448 kb/s
  136. Channel(s)                               : 6 channels
  137. Channel positions                        : Front: L C R, Side: L R, LFE
  138. Sampling rate                            : 48.0 kHz
  139. Frame rate                               : 31.250 FPS (1536 SPF)
  140. Bit depth                                : 16 bits
  141. Compression mode                         : Lossy
  142. Delay relative to video                  : 14 ms
  143. Stream size                              : 336 MiB (1%)
  144. Title                                    : The.Greatest.Showman.2017.2160p.BluRay.REMUX.HEVC.DTS-HD.MA.TrueHD.7.1.Atmos-FGT
  145. Language                                 : Spanish
  146. Service kind                             : Complete Main
  147. Default                                  : No
  148. Forced                                   : No

  149. Audio #7
  150. ID                                       : 8
  151. Format                                   : DTS
  152. Format/Info                              : Digital Theater Systems
  153. Codec ID                                 : A_DTS
  154. Duration                                 : 1 h 44 min
  155. Bit rate mode                            : Constant
  156. Bit rate                                 : 768 kb/s
  157. Channel(s)                               : 6 channels
  158. Channel positions                        : Front: L C R, Side: L R, LFE
  159. Sampling rate                            : 48.0 kHz
  160. Frame rate                               : 93.750 FPS (512 SPF)
  161. Bit depth                                : 24 bits
  162. Compression mode                         : Lossy
  163. Stream size                              : 576 MiB (1%)
  164. Title                                    : The.Greatest.Showman.2017.2160p.BluRay.REMUX.HEVC.DTS-HD.MA.TrueHD.7.1.Atmos-FGT
  165. Language                                 : French
  166. Default                                  : No
  167. Forced                                   : No

  168. Audio #8
  169. ID                                       : 9
  170. Format                                   : DTS
  171. Format/Info                              : Digital Theater Systems
  172. Codec ID                                 : A_DTS
  173. Duration                                 : 1 h 44 min
  174. Bit rate mode                            : Constant
  175. Bit rate                                 : 768 kb/s
  176. Channel(s)                               : 6 channels
  177. Channel positions                        : Front: L C R, Side: L R, LFE
  178. Sampling rate                            : 48.0 kHz
  179. Frame rate                               : 93.750 FPS (512 SPF)
  180. Bit depth                                : 24 bits
  181. Compression mode                         : Lossy
  182. Stream size                              : 576 MiB (1%)
  183. Title                                    : The.Greatest.Showman.2017.2160p.BluRay.REMUX.HEVC.DTS-HD.MA.TrueHD.7.1.Atmos-FGT
  184. Language                                 : Spanish
  185. Default                                  : No
  186. Forced                                   : No

  187. Audio #9
  188. ID                                       : 10
  189. Format                                   : DTS
  190. Format/Info                              : Digital Theater Systems
  191. Codec ID                                 : A_DTS
  192. Duration                                 : 1 h 44 min
  193. Bit rate mode                            : Constant
  194. Bit rate                                 : 768 kb/s
  195. Channel(s)                               : 6 channels
  196. Channel positions                        : Front: L C R, Side: L R, LFE
  197. Sampling rate                            : 48.0 kHz
  198. Frame rate                               : 93.750 FPS (512 SPF)
  199. Bit depth                                : 24 bits
  200. Compression mode                         : Lossy
  201. Stream size                              : 576 MiB (1%)
  202. Title                                    : The.Greatest.Showman.2017.2160p.BluRay.REMUX.HEVC.DTS-HD.MA.TrueHD.7.1.Atmos-FGT
  203. Language                                 : German
  204. Default                                  : No
  205. Forced                                   : No

  206. Audio #10
  207. ID                                       : 11
  208. Format                                   : DTS
  209. Format/Info                              : Digital Theater Systems
  210. Codec ID                                 : A_DTS
  211. Duration                                 : 1 h 44 min
  212. Bit rate mode                            : Constant
  213. Bit rate                                 : 768 kb/s
  214. Channel(s)                               : 6 channels
  215. Channel positions                        : Front: L C R, Side: L R, LFE
  216. Sampling rate                            : 48.0 kHz
  217. Frame rate                               : 93.750 FPS (512 SPF)
  218. Bit depth                                : 24 bits
  219. Compression mode                         : Lossy
  220. Stream size                              : 576 MiB (1%)
  221. Title                                    : The.Greatest.Showman.2017.2160p.BluRay.REMUX.HEVC.DTS-HD.MA.TrueHD.7.1.Atmos-FGT
  222. Language                                 : Italian
  223. Default                                  : No
  224. Forced                                   : No

  225. Audio #11
  226. ID                                       : 12
  227. Format                                   : AC-3
  228. Format/Info                              : Audio Coding 3
  229. Codec ID                                 : A_AC3
  230. Duration                                 : 1 h 44 min
  231. Bit rate mode                            : Constant
  232. Bit rate                                 : 448 kb/s
  233. Channel(s)                               : 6 channels
  234. Channel positions                        : Front: L C R, Side: L R, LFE
  235. Sampling rate                            : 48.0 kHz
  236. Frame rate                               : 31.250 FPS (1536 SPF)
  237. Bit depth                                : 16 bits
  238. Compression mode                         : Lossy
  239. Delay relative to video                  : 14 ms
  240. Stream size                              : 336 MiB (1%)
  241. Title                                    : The.Greatest.Showman.2017.2160p.BluRay.REMUX.HEVC.DTS-HD.MA.TrueHD.7.1.Atmos-FGT
  242. Language                                 : Czech
  243. Service kind                             : Complete Main
  244. Default                                  : No
  245. Forced                                   : No

  246. Audio #12
  247. ID                                       : 13
  248. Format                                   : AC-3
  249. Format/Info                              : Audio Coding 3
  250. Codec ID                                 : A_AC3
  251. Duration                                 : 1 h 44 min
  252. Bit rate mode                            : Constant
  253. Bit rate                                 : 448 kb/s
  254. Channel(s)                               : 6 channels
  255. Channel positions                        : Front: L C R, Side: L R, LFE
  256. Sampling rate                            : 48.0 kHz
  257. Frame rate                               : 31.250 FPS (1536 SPF)
  258. Bit depth                                : 16 bits
  259. Compression mode                         : Lossy
  260. Delay relative to video                  : 14 ms
  261. Stream size                              : 336 MiB (1%)
  262. Title                                    : The.Greatest.Showman.2017.2160p.BluRay.REMUX.HEVC.DTS-HD.MA.TrueHD.7.1.Atmos-FGT
  263. Language                                 : Polish
  264. Service kind                             : Complete Main
  265. Default                                  : No
  266. Forced                                   : No

  267. Audio #13
  268. ID                                       : 14
  269. Format                                   : DTS
  270. Format/Info                              : Digital Theater Systems
  271. Codec ID                                 : A_DTS
  272. Duration                                 : 1 h 44 min
  273. Bit rate mode                            : Constant
  274. Bit rate                                 : 768 kb/s
  275. Channel(s)                               : 6 channels
  276. Channel positions                        : Front: L C R, Side: L R, LFE
  277. Sampling rate                            : 48.0 kHz
  278. Frame rate                               : 93.750 FPS (512 SPF)
  279. Bit depth                                : 24 bits
  280. Compression mode                         : Lossy
  281. Stream size                              : 576 MiB (1%)
  282. Title                                    : The.Greatest.Showman.2017.2160p.BluRay.REMUX.HEVC.DTS-HD.MA.TrueHD.7.1.Atmos-FGT
  283. Language                                 : Japanese
  284. Default                                  : No
  285. Forced                                   : No

  286. Audio #14
  287. ID                                       : 15
  288. Format                                   : AC-3
  289. Format/Info                              : Audio Coding 3
  290. Codec ID                                 : A_AC3
  291. Duration                                 : 1 h 44 min
  292. Bit rate mode                            : Constant
  293. Bit rate                                 : 224 kb/s
  294. Channel(s)                               : 2 channels
  295. Channel positions                        : Front: L R
  296. Sampling rate                            : 48.0 kHz
  297. Frame rate                               : 31.250 FPS (1536 SPF)
  298. Bit depth                                : 16 bits
  299. Compression mode                         : Lossy
  300. Delay relative to video                  : 14 ms
  301. Stream size                              : 168 MiB (0%)
  302. Title                                    : The.Greatest.Showman.2017.2160p.BluRay.REMUX.HEVC.DTS-HD.MA.TrueHD.7.1.Atmos-FGT
  303. Language                                 : English
  304. Service kind                             : Complete Main
  305. Default                                  : No
  306. Forced                                   : No

  307. Text #1
  308. ID                                       : 16
  309. Format                                   : PGS
  310. Muxing mode                              : zlib
  311. Codec ID                                 : S_HDMV/PGS
  312. Codec ID/Info                            : Picture based subtitle format used on BDs/HD-DVDs
  313. Duration                                 : 1 h 43 min
  314. Bit rate                                 : 51.5 kb/s
  315. Count of elements                        : 3728
  316. Stream size                              : 38.1 MiB (0%)
  317. Title                                    : English-PGS
  318. Language                                 : English
  319. Default                                  : Yes
  320. Forced                                   : No

  321. Text #2
  322. ID                                       : 17
  323. Format                                   : PGS
  324. Muxing mode                              : zlib
  325. Codec ID                                 : S_HDMV/PGS
  326. Codec ID/Info                            : Picture based subtitle format used on BDs/HD-DVDs
  327. Duration                                 : 1 h 43 min
  328. Bit rate                                 : 38.9 kb/s
  329. Count of elements                        : 2932
  330. Stream size                              : 28.9 MiB (0%)
  331. Title                                    : Spanish-PGS
  332. Language                                 : Spanish
  333. Default                                  : No
  334. Forced                                   : No

  335. Text #3
  336. ID                                       : 18
  337. Format                                   : PGS
  338. Muxing mode                              : zlib
  339. Codec ID                                 : S_HDMV/PGS
  340. Codec ID/Info                            : Picture based subtitle format used on BDs/HD-DVDs
  341. Duration                                 : 1 h 44 min
  342. Bit rate                                 : 41.9 kb/s
  343. Count of elements                        : 3367
  344. Stream size                              : 31.3 MiB (0%)
  345. Title                                    : French-PGS
  346. Language                                 : French
  347. Default                                  : No
  348. Forced                                   : No

  349. Text #4
  350. ID                                       : 19
  351. Format                                   : PGS
  352. Muxing mode                              : zlib
  353. Codec ID                                 : S_HDMV/PGS
  354. Codec ID/Info                            : Picture based subtitle format used on BDs/HD-DVDs
  355. Duration                                 : 1 h 43 min
  356. Bit rate                                 : 33.0 kb/s
  357. Count of elements                        : 2706
  358. Stream size                              : 24.5 MiB (0%)
  359. Title                                    : French-PGS
  360. Language                                 : French
  361. Default                                  : No
  362. Forced                                   : No

  363. Text #5
  364. ID                                       : 20
  365. Format                                   : PGS
  366. Muxing mode                              : zlib
  367. Codec ID                                 : S_HDMV/PGS
  368. Codec ID/Info                            : Picture based subtitle format used on BDs/HD-DVDs
  369. Duration                                 : 1 h 43 min
  370. Bit rate                                 : 38.0 kb/s
  371. Count of elements                        : 2984
  372. Stream size                              : 28.2 MiB (0%)
  373. Title                                    : Spanish-PGS
  374. Language                                 : Spanish
  375. Default                                  : No
  376. Forced                                   : No

  377. Text #6
  378. ID                                       : 21
  379. Format                                   : PGS
  380. Muxing mode                              : zlib
  381. Codec ID                                 : S_HDMV/PGS
  382. Codec ID/Info                            : Picture based subtitle format used on BDs/HD-DVDs
  383. Duration                                 : 1 h 43 min
  384. Bit rate                                 : 33.8 kb/s
  385. Count of elements                        : 2254
  386. Stream size                              : 25.1 MiB (0%)
  387. Title                                    : Danish-PGS
  388. Language                                 : Danish
  389. Default                                  : No
  390. Forced                                   : No

  391. Text #7
  392. ID                                       : 22
  393. Format                                   : PGS
  394. Muxing mode                              : zlib
  395. Codec ID                                 : S_HDMV/PGS
  396. Codec ID/Info                            : Picture based subtitle format used on BDs/HD-DVDs
  397. Duration                                 : 1 h 43 min
  398. Bit rate                                 : 36.0 kb/s
  399. Count of elements                        : 2556
  400. Stream size                              : 26.7 MiB (0%)
  401. Title                                    : Dutch-PGS
  402. Language                                 : Dutch
  403. Default                                  : No
  404. Forced                                   : No

  405. Text #8
  406. ID                                       : 23
  407. Format                                   : PGS
  408. Muxing mode                              : zlib
  409. Codec ID                                 : S_HDMV/PGS
  410. Codec ID/Info                            : Picture based subtitle format used on BDs/HD-DVDs
  411. Duration                                 : 1 h 43 min
  412. Bit rate                                 : 36.4 kb/s
  413. Count of elements                        : 2964
  414. Stream size                              : 27.0 MiB (0%)
  415. Title                                    : Finnish-PGS
  416. Language                                 : Finnish
  417. Default                                  : No
  418. Forced                                   : No

  419. Text #9
  420. ID                                       : 24
  421. Format                                   : PGS
  422. Muxing mode                              : zlib
  423. Codec ID                                 : S_HDMV/PGS
  424. Codec ID/Info                            : Picture based subtitle format used on BDs/HD-DVDs
  425. Duration                                 : 1 h 43 min
  426. Bit rate                                 : 41.2 kb/s
  427. Count of elements                        : 2602
  428. Stream size                              : 30.6 MiB (0%)
  429. Title                                    : German-PGS
  430. Language                                 : German
  431. Default                                  : No
  432. Forced                                   : No

  433. Text #10
  434. ID                                       : 25
  435. Format                                   : PGS
  436. Muxing mode                              : zlib
  437. Codec ID                                 : S_HDMV/PGS
  438. Codec ID/Info                            : Picture based subtitle format used on BDs/HD-DVDs
  439. Duration                                 : 1 h 43 min
  440. Bit rate                                 : 41.0 kb/s
  441. Count of elements                        : 2948
  442. Stream size                              : 30.4 MiB (0%)
  443. Title                                    : Italian-PGS
  444. Language                                 : Italian
  445. Default                                  : No
  446. Forced                                   : No

  447. Text #11
  448. ID                                       : 26
  449. Format                                   : PGS
  450. Muxing mode                              : zlib
  451. Codec ID                                 : S_HDMV/PGS
  452. Codec ID/Info                            : Picture based subtitle format used on BDs/HD-DVDs
  453. Duration                                 : 1 h 43 min
  454. Bit rate                                 : 39.3 kb/s
  455. Count of elements                        : 2978
  456. Stream size                              : 29.2 MiB (0%)
  457. Title                                    : Norwegian-PGS
  458. Language                                 : Norwegian
  459. Default                                  : No
  460. Forced                                   : No

  461. Text #12
  462. ID                                       : 27
  463. Format                                   : PGS
  464. Muxing mode                              : zlib
  465. Codec ID                                 : S_HDMV/PGS
  466. Codec ID/Info                            : Picture based subtitle format used on BDs/HD-DVDs
  467. Duration                                 : 1 h 43 min
  468. Bit rate                                 : 39.7 kb/s
  469. Count of elements                        : 2966
  470. Stream size                              : 29.5 MiB (0%)
  471. Title                                    : Swedish-PGS
  472. Language                                 : Swedish
  473. Default                                  : No
  474. Forced                                   : No

  475. Text #13
  476. ID                                       : 28
  477. Format                                   : PGS
  478. Muxing mode                              : zlib
  479. Codec ID                                 : S_HDMV/PGS
  480. Codec ID/Info                            : Picture based subtitle format used on BDs/HD-DVDs
  481. Duration                                 : 1 h 43 min
  482. Bit rate                                 : 30.5 kb/s
  483. Count of elements                        : 3018
  484. Stream size                              : 22.6 MiB (0%)
  485. Title                                    : Chinese-PGS
  486. Language                                 : Chinese
  487. Default                                  : No
  488. Forced                                   : No

  489. Text #14
  490. ID                                       : 29
  491. Format                                   : PGS
  492. Muxing mode                              : zlib
  493. Codec ID                                 : S_HDMV/PGS
  494. Codec ID/Info                            : Picture based subtitle format used on BDs/HD-DVDs
  495. Duration                                 : 1 h 44 min
  496. Bit rate                                 : 39.4 kb/s
  497. Count of elements                        : 3032
  498. Stream size                              : 29.5 MiB (0%)
  499. Title                                    : Czech-PGS
  500. Language                                 : Czech
  501. Default                                  : No
  502. Forced                                   : No

  503. Text #15
  504. ID                                       : 30
  505. Format                                   : PGS
  506. Muxing mode                              : zlib
  507. Codec ID                                 : S_HDMV/PGS
  508. Codec ID/Info                            : Picture based subtitle format used on BDs/HD-DVDs
  509. Duration                                 : 1 h 43 min
  510. Bit rate                                 : 29.2 kb/s
  511. Count of elements                        : 2994
  512. Stream size                              : 21.7 MiB (0%)
  513. Title                                    : Chinese-PGS
  514. Language                                 : Chinese
  515. Default                                  : No
  516. Forced                                   : No

  517. Text #16
  518. ID                                       : 31
  519. Format                                   : PGS
  520. Muxing mode                              : zlib
  521. Codec ID                                 : S_HDMV/PGS
  522. Codec ID/Info                            : Picture based subtitle format used on BDs/HD-DVDs
  523. Duration                                 : 1 h 43 min
  524. Bit rate                                 : 34.3 kb/s
  525. Count of elements                        : 2852
  526. Stream size                              : 25.5 MiB (0%)
  527. Title                                    : Polish-PGS
  528. Language                                 : Polish
  529. Default                                  : No
  530. Forced                                   : No

  531. Text #17
  532. ID                                       : 32
  533. Format                                   : PGS
  534. Muxing mode                              : zlib
  535. Codec ID                                 : S_HDMV/PGS
  536. Codec ID/Info                            : Picture based subtitle format used on BDs/HD-DVDs
  537. Duration                                 : 1 h 36 min
  538. Bit rate                                 : 54.2 kb/s
  539. Count of elements                        : 2359
  540. Stream size                              : 37.5 MiB (0%)
  541. Title                                    : English-COMMENTARY-PGS
  542. Language                                 : English
  543. Default                                  : No
  544. Forced                                   : No

  545. Text #18
  546. ID                                       : 33
  547. Format                                   : PGS
  548. Muxing mode                              : zlib
  549. Codec ID                                 : S_HDMV/PGS
  550. Codec ID/Info                            : Picture based subtitle format used on BDs/HD-DVDs
  551. Duration                                 : 1 h 44 min
  552. Bit rate                                 : 50.4 kb/s
  553. Count of elements                        : 2488
  554. Stream size                              : 37.7 MiB (0%)
  555. Title                                    : Spanish-COMMENTARY-PGS
  556. Language                                 : Spanish
  557. Default                                  : No
  558. Forced                                   : No

  559. Text #19
  560. ID                                       : 34
  561. Format                                   : PGS
  562. Muxing mode                              : zlib
  563. Codec ID                                 : S_HDMV/PGS
  564. Codec ID/Info                            : Picture based subtitle format used on BDs/HD-DVDs
  565. Duration                                 : 1 h 44 min
  566. Bit rate                                 : 47.0 kb/s
  567. Count of elements                        : 2379
  568. Stream size                              : 35.1 MiB (0%)
  569. Title                                    : French-COMMENTARY-PGS
  570. Language                                 : French
  571. Default                                  : No
  572. Forced                                   : No

  573. Text #20
  574. ID                                       : 35
  575. Format                                   : PGS
  576. Muxing mode                              : zlib
  577. Codec ID                                 : S_HDMV/PGS
  578. Codec ID/Info                            : Picture based subtitle format used on BDs/HD-DVDs
  579. Duration                                 : 1 h 44 min
  580. Bit rate                                 : 48.0 kb/s
  581. Count of elements                        : 2377
  582. Stream size                              : 35.9 MiB (0%)
  583. Title                                    : Spanish-COMMENTARY-PGS
  584. Language                                 : Spanish
  585. Default                                  : No
  586. Forced                                   : No

  587. Text #21
  588. ID                                       : 36
  589. Format                                   : PGS
  590. Muxing mode                              : zlib
  591. Codec ID                                 : S_HDMV/PGS
  592. Codec ID/Info                            : Picture based subtitle format used on BDs/HD-DVDs
  593. Duration                                 : 1 h 44 min
  594. Bit rate                                 : 41.8 kb/s
  595. Count of elements                        : 2370
  596. Stream size                              : 31.3 MiB (0%)
  597. Title                                    : Danish-COMMENTARY-PGS
  598. Language                                 : Danish
  599. Default                                  : No
  600. Forced                                   : No

  601. Text #22
  602. ID                                       : 37
  603. Format                                   : PGS
  604. Muxing mode                              : zlib
  605. Codec ID                                 : S_HDMV/PGS
  606. Codec ID/Info                            : Picture based subtitle format used on BDs/HD-DVDs
  607. Duration                                 : 1 h 44 min
  608. Bit rate                                 : 48.0 kb/s
  609. Count of elements                        : 2372
  610. Stream size                              : 35.9 MiB (0%)
  611. Title                                    : Dutch-COMMENTARY-PGS
  612. Language                                 : Dutch
  613. Default                                  : No
  614. Forced                                   : No

  615. Text #23
  616. ID                                       : 38
  617. Format                                   : PGS
  618. Muxing mode                              : zlib
  619. Codec ID                                 : S_HDMV/PGS
  620. Codec ID/Info                            : Picture based subtitle format used on BDs/HD-DVDs
  621. Duration                                 : 1 h 44 min
  622. Bit rate                                 : 44.5 kb/s
  623. Count of elements                        : 2372
  624. Stream size                              : 33.3 MiB (0%)
  625. Title                                    : Finnish-COMMENTARY-PGS
  626. Language                                 : Finnish
  627. Default                                  : No
  628. Forced                                   : No

  629. Text #24
  630. ID                                       : 39
  631. Format                                   : PGS
  632. Muxing mode                              : zlib
  633. Codec ID                                 : S_HDMV/PGS
  634. Codec ID/Info                            : Picture based subtitle format used on BDs/HD-DVDs
  635. Duration                                 : 1 h 44 min
  636. Bit rate                                 : 50.7 kb/s
  637. Count of elements                        : 2377
  638. Stream size                              : 37.9 MiB (0%)
  639. Title                                    : German-COMMENTARY-PGS
  640. Language                                 : German
  641. Default                                  : No
  642. Forced                                   : No

  643. Text #25
  644. ID                                       : 40
  645. Format                                   : PGS
  646. Muxing mode                              : zlib
  647. Codec ID                                 : S_HDMV/PGS
  648. Codec ID/Info                            : Picture based subtitle format used on BDs/HD-DVDs
  649. Duration                                 : 1 h 44 min
  650. Bit rate                                 : 47.3 kb/s
  651. Count of elements                        : 2372
  652. Stream size                              : 35.4 MiB (0%)
  653. Title                                    : Italian-COMMENTARY-PGS
  654. Language                                 : Italian
  655. Default                                  : No
  656. Forced                                   : No

  657. Text #26
  658. ID                                       : 41
  659. Format                                   : PGS
  660. Muxing mode                              : zlib
  661. Codec ID                                 : S_HDMV/PGS
  662. Codec ID/Info                            : Picture based subtitle format used on BDs/HD-DVDs
  663. Duration                                 : 1 h 44 min
  664. Bit rate                                 : 45.9 kb/s
  665. Count of elements                        : 2372
  666. Stream size                              : 34.4 MiB (0%)
  667. Title                                    : Norwegian-COMMENTARY-PGS
  668. Language                                 : Norwegian
  669. Default                                  : No
  670. Forced                                   : No

  671. Text #27
  672. ID                                       : 42
  673. Format                                   : PGS
  674. Muxing mode                              : zlib
  675. Codec ID                                 : S_HDMV/PGS
  676. Codec ID/Info                            : Picture based subtitle format used on BDs/HD-DVDs
  677. Duration                                 : 1 h 44 min
  678. Bit rate                                 : 46.6 kb/s
  679. Count of elements                        : 2370
  680. Stream size                              : 34.9 MiB (0%)
  681. Title                                    : Swedish-COMMENTARY-PGS
  682. Language                                 : Swedish
  683. Default                                  : No
  684. Forced                                   : No

  685. Text #28
  686. ID                                       : 43
  687. Format                                   : PGS
  688. Muxing mode                              : zlib
  689. Codec ID                                 : S_HDMV/PGS
  690. Codec ID/Info                            : Picture based subtitle format used on BDs/HD-DVDs
  691. Duration                                 : 1 h 43 min
  692. Bit rate                                 : 22.6 kb/s
  693. Count of elements                        : 2670
  694. Stream size                              : 16.8 MiB (0%)
  695. Title                                    : Japanese-PGS
  696. Language                                 : Japanese
  697. Default                                  : No
  698. Forced                                   : No

  699. Text #29
  700. ID                                       : 44
  701. Format                                   : PGS
  702. Muxing mode                              : zlib
  703. Codec ID                                 : S_HDMV/PGS
  704. Codec ID/Info                            : Picture based subtitle format used on BDs/HD-DVDs
  705. Duration                                 : 1 h 36 min
  706. Bit rate                                 : 10.5 kb/s
  707. Count of elements                        : 1028
  708. Stream size                              : 7.24 MiB (0%)
  709. Title                                    : Japanese-FORCED-PGS
  710. Language                                 : Japanese
  711. Default                                  : No
  712. Forced                                   : No

  713. Text #30
  714. ID                                       : 45
  715. Format                                   : PGS
  716. Muxing mode                              : zlib
  717. Codec ID                                 : S_HDMV/PGS
  718. Codec ID/Info                            : Picture based subtitle format used on BDs/HD-DVDs
  719. Duration                                 : 1 h 44 min
  720. Bit rate                                 : 29.0 kb/s
  721. Count of elements                        : 1950
  722. Stream size                              : 21.7 MiB (0%)
  723. Title                                    : Japanese-PGS
  724. Language                                 : Japanese
  725. Default                                  : No
  726. Forced                                   : No

  727. Text #31
  728. ID                                       : 46
  729. Format                                   : PGS
  730. Muxing mode                              : zlib
  731. Codec ID                                 : S_HDMV/PGS
  732. Codec ID/Info                            : Picture based subtitle format used on BDs/HD-DVDs
  733. Duration                                 : 1 h 43 min
  734. Bit rate                                 : 167 kb/s
  735. Count of elements                        : 5256
  736. Stream size                              : 124 MiB (0%)
  737. Title                                    : English
  738. Language                                 : English
  739. Default                                  : No
  740. Forced                                   : No

  741. Menu
  742. 00:00:00.000                             : en:Chapter 1
  743. 00:03:21.618                             : en:Chapter 2
  744. 00:11:33.984                             : en:Chapter 3
  745. 00:16:21.313                             : en:Chapter 4
  746. 00:21:13.730                             : en:Chapter 5
  747. 00:25:04.169                             : en:Chapter 6
  748. 00:32:10.178                             : en:Chapter 7
  749. 00:36:09.625                             : en:Chapter 8
  750. 00:41:38.412                             : en:Chapter 9
  751. 00:44:41.053                             : en:Chapter 10
  752. 00:48:24.151                             : en:Chapter 11
  753. 00:53:11.146                             : en:Chapter 12
  754. 00:56:20.710                             : en:Chapter 13
  755. 01:01:34.816                             : en:Chapter 14
  756. 01:07:33.883                             : en:Chapter 15
  757. 01:12:00.983                             : en:Chapter 16
  758. 01:18:23.699                             : en:Chapter 17
  759. 01:22:07.130                             : en:Chapter 18
  760. 01:29:04.797                             : en:Chapter 19
  761. 01:37:09.448                             : en:Chapter 20



复制代码
复制代码
025443lqq282onuq7jpbdy.jpg 025443scl9b33pldmk9bmb.jpg 025444hvba0gejakz0hj4b.jpg







回复

使用道具 举报

蓝光币
262
发表于 2018-4-7 18:22:21 | 显示全部楼层
真是难得给力的帖子啊。
回复 支持 反对

使用道具 举报

蓝光币
1
发表于 2018-4-7 22:24:15 | 显示全部楼层
等了很久  终于有了
回复 支持 反对

使用道具 举报

蓝光币
1
发表于 2018-4-9 14:05:21 | 显示全部楼层
弟弟顶顶顶顶顶顶顶顶顶顶顶顶顶顶顶
回复 支持 反对

使用道具 举报

蓝光币
821
发表于 2018-4-15 15:53:26 | 显示全部楼层
强烈支持楼主ing……
回复 支持 反对

使用道具 举报

蓝光币
189
发表于 2018-4-19 15:48:46 | 显示全部楼层
强烈支持楼主ing……
回复 支持 反对

使用道具 举报

蓝光币
325
发表于 2019-2-12 10:11:42 | 显示全部楼层

楼主,大恩不言谢了!蓝光电影网是最棒的!
回复 支持 反对

使用道具 举报

懒得打字嘛,点击右侧快捷回复 【右侧内容,后台自定义】
您需要登录后才可以回帖 登录 | 立即加入

本版积分规则

Archiver|小黑屋| 蓝光电影网 |网站地图

Copyright © 2021 Comsenz Inc. Powered by 蓝光电影网

蓝光电影网

本站内容由用户自主分享和转载自互联网,转载目的在于传递更多信息,并不代表本网赞同其观点和对其真实性负责。

如有侵权、违反国家法律政策行为,请联系我们,我们会第一时间及时清除和处理!

举报反馈邮箱:[email protected]

快速回复 返回顶部 返回列表