找回密码

蓝光电影网

查看: 4454|回复: 1

马戏之王/大娱乐家 The.Greatest.Showman.2017.2160p.BluRay.x265.10bit.SDR.DTS-HD.MA.TrueHD.7.1.Atmos-SWTYBLZ 25.65GB

[复制链接]
蓝光币
623
发表于 2018-4-8 11:36:12 | 显示全部楼层 |阅读模式
221121oelrmioe4o739qsx.jpg
◎译  名 马戏之王/大文娱家(港/台)/地球最强秀/地球最强马戏演员/全球最巨大的马戏演员/大秀之王
◎片  名 The Greatest Showman
◎年  代 2017
◎产  地 美国
◎类  别 剧情/列传/歌舞
◎语  言 英语
◎上映日期 2017-12-20(美国)/2018-02-01(中国大陆)
◎IMDb评分  7.8/10 from 99,168 users
◎IMDb链接  http://www.imdb.com/title/tt1485796/
◎豆瓣评分 7.9/10 from 68,209 users
◎豆瓣链接 https://movie.douban.com/subject/3914513/
◎片  长 105分钟/106分钟(中国大陆)
◎导  演 迈克尔·格雷西 Michael Gracey
◎主  演 休·杰克曼 Hugh Jackman
      米歇尔·威廉姆斯 Michelle Williams
      扎克·埃夫隆 Zac Efron
      赞达亚 Zendaya
      丽贝卡·弗格森 Rebecca Ferguson
      奥丝汀·约翰森 Austyn Johnson
      卡梅伦·丝蕾 Cameron Seely
      基拉·塞特尔 Keala Settle
      萨姆·汉弗莱 Sam Humphrey
      叶海亚·阿卜杜勒-迈丁 Yahya Abdul-Mateen II
      埃里克·安德森 Eric Anderson
      伊利斯·鲁宾 Ellis Rubin
      斯凯勒·杜恩 Skylar Dunn
      丹尼尔·埃维里奇 Daniel Everidge
      拉杜·斯平格尔 Radu Spinghel
      小森优作 Yusaku Komori
      丹尼尔·松 Danial Son
      保罗·斯帕克斯 Paul Sparks
      威尔·斯文森 Will Swenson

◎简  介

  《马戏之王》取材自真人真事,好莱坞万能巨星休·杰克曼在片中饰演“马戏团鼻祖”、传奇人物P.T.巴纳姆。故事报告了身处社会底层的巴纳姆依靠自己无穷设想力和锲而不舍的精神,从经营博物馆到一手开创天下上第一家马戏团的故事。巴纳姆的奇思妙想最起头并不被公共所认可,几近没人花钱欣赏,他的家人好友帮他度过一次次绝境。在履历了一系列挫折、与合作伙伴的分歧以后,秉持胡想的他终究成为全美甚至全天下最为著名的“造梦大师”。

◎获奖情况

  第90届奥斯卡金像奖  (2018)
  最好原创歌曲(提名) 本吉·帕塞克 / 贾斯廷·保罗

  第75届金球奖  (2018)
  电影类 最好音乐/笑剧片(提名)
  电影类 音乐/笑剧片最好男配角(提名) 休·杰克曼
  电影类 最好原创歌曲

  第23届美国批评家挑选电影奖  (2018)
  最好歌曲(提名)



  1. Video
  2. ID                                       : 1
  3. Format                                   : HEVC
  4. Format/Info                              : High Efficiency Video Coding
  5. Format profile                           : Main [email][email protected][/email]@High
  6. Codec ID                                 : V_MPEGH/ISO/HEVC
  7. Duration                                 : 1 h 44 min
  8. Bit rate                                 : 24.8 Mb/s
  9. Width                                    : 3 840 pixels
  10. Height                                   : 1 600 pixels
  11. Display aspect ratio                     : 2.40:1
  12. Frame rate mode                          : Constant
  13. Frame rate                               : 23.976 (24000/1001) FPS
  14. Color space                              : YUV
  15. Chroma subsampling                       : 4:2:0
  16. Bit depth                                : 10 bits
  17. Bits/(Pixel*Frame)                       : 0.168
  18. Stream size                              : 18.1GB (71%)
  19. Title                                    : The.Greatest.Showman.2017.2160p.BluRay.x265.10bit.SDR.DTS-HD.MA.TrueHD.7.1.Atmos-SWTYBLZ
  20. Writing library                          : x265 2.5+4-b4a5bcfe29c7:[Windows][GCC 4.9.3][64 bit] 10bit
  21. Encoding settings                        : cpuid=1173503 / frame-threads=16 / numa-pools=24,24,24,24 / wpp / no-pmode / no-pme / no-psnr / no-ssim / log-level=2 / input-csp=1 / input-res=3840x1600 / interlace=0 / total-frames=0 / level-idc=51 / high-tier=1 / uhd-bd=0 / ref=3 / no-allow-non-conformance / repeat-headers / annexb / aud / hrd / info / hash=0 / no-temporal-layers / no-open-gop / min-keyint=1 / keyint=24 / bframes=4 / b-adapt=2 / b-pyramid / bframe-bias=0 / rc-lookahead=25 / lookahead-slices=4 / scenecut=40 / no-intra-refresh / ctu=64 / min-cu-size=8 / no-rect / no-amp / max-tu-size=32 / tu-inter-depth=1 / tu-intra-depth=1 / limit-tu=0 / rdoq-level=0 / dynamic-rd=0.00 / no-ssim-rd / signhide / no-tskip / nr-intra=0 / nr-inter=0 / no-constrained-intra / strong-intra-smoothing / max-merge=2 / limit-refs=3 / no-limit-modes / me=1 / subme=2 / merange=57 / temporal-mvp / weightp / no-weightb / no-analyze-src-pics / deblock=0:0 / no-sao / no-sao-non-deblock / rd=3 / no-early-skip / rskip / no-fast-intra / no-tskip-fast / no-cu-lossless / no-b-intra / rdpenalty=0 / psy-rd=2.00 / psy-rdoq=0.00 / no-rd-refine / analysis-reuse-mode=0 / no-lossless / cbqpoffs=0 / crqpoffs=0 / rc=crf / crf=16.0 / qcomp=0.60 / qpstep=4 / stats-write=0 / stats-read=0 / vbv-maxrate=160000 / vbv-bufsize=160000 / vbv-init=0.9 / crf-max=0.0 / crf-min=0.0 / ipratio=1.40 / pbratio=1.30 / aq-mode=1 / aq-strength=1.00 / cutree / zone-count=0 / no-strict-cbr / qg-size=32 / no-rc-grain / qpmax=69 / qpmin=0 / no-const-vbv / sar=1 / overscan=0 / videoformat=5 / range=0 / colorprim=2 / transfer=2 / colormatrix=2 / chromaloc=0 / display-window=0 / max-cll=0,0 / min-luma=0 / max-luma=1023 / log2-max-poc-lsb=8 / vui-timing-info / vui-hrd-info / slices=1 / opt-qp-pps / opt-ref-list-length-pps / no-multi-pass-opt-rps / scenecut-bias=0.05 / no-opt-cu-delta-qp / no-aq-motion / no-hdr / no-hdr-opt / no-dhdr10-opt / analysis-reuse-level=5 / scale-factor=0 / refine-intra=0 / refine-inter=0 / refine-mv=0 / no-limit-sao / ctu-info=0
  22. Default                                  : Yes
  23. Forced                                   : No

  24. Audio #1
  25. ID                                       : 2
  26. Format                                   : TrueHD
  27. Format profile                           : TrueHD+Atmos / TrueHD
  28. Codec ID                                 : A_TRUEHD
  29. Duration                                 : 1 h 44 min
  30. Bit rate mode                            : Variable
  31. Bit rate                                 : 4 572 kb/s
  32. Maximum bit rate                         : 7 779 kb/s
  33. Channel(s)                               : Object Based / 8 channels
  34. Channel positions                        : Object Based / Front: L C R, Side: L R, Back: L R, LFE
  35. Sampling rate                            :  / 48.0 kHz
  36. Frame rate                               : 1 200.000 FPS (40 SPF)
  37. Compression mode                         : Lossless
  38. Stream size                              : 3.35GB (13%)
  39. Title                                    : The.Greatest.Showman.2017.2160p.BluRay.x265.10bit.SDR.DTS-HD.MA.TrueHD.7.1.Atmos-SWTYBLZ
  40. Language                                 : English
  41. Default                                  : Yes
  42. Forced                                   : No

  43. Audio #2
  44. ID                                       : 3
  45. Format                                   : DTS
  46. Format/Info                              : Digital Theater Systems
  47. Format profile                           : MA / Core
  48. Codec ID                                 : A_DTS
  49. Duration                                 : 1 h 44 min
  50. Bit rate mode                            : Variable / Constant
  51. Bit rate                                 : 4 427 kb/s / 1 509 kb/s
  52. Channel(s)                               : 8 channels / 6 channels
  53. Channel positions                        : Front: L C R, Side: L R, Back: L R, LFE / Front: L C R, Side: L R, LFE
  54. Sampling rate                            : 48.0 kHz
  55. Frame rate                               : 93.750 FPS (512 SPF)
  56. Bit depth                                : 24 bits
  57. Compression mode                         : Lossless / Lossy
  58. Stream size                              : 3.24GB (13%)
  59. Title                                    : The.Greatest.Showman.2017.2160p.BluRay.x265.10bit.SDR.DTS-HD.MA.TrueHD.7.1.Atmos-SWTYBLZ
  60. Language                                 : English
  61. Default                                  : No
  62. Forced                                   : No

  63. Audio #3
  64. ID                                       : 4
  65. Format                                   : AC-3
  66. Format/Info                              : Audio Coding 3
  67. Codec ID                                 : A_AC3
  68. Duration                                 : 1 h 44 min
  69. Bit rate mode                            : Constant
  70. Bit rate                                 : 640 kb/s
  71. Channel(s)                               : 6 channels
  72. Channel positions                        : Front: L C R, Side: L R, LFE
  73. Sampling rate                            : 48.0 kHz
  74. Frame rate                               : 31.250 FPS (1536 SPF)
  75. Bit depth                                : 16 bits
  76. Compression mode                         : Lossy
  77. Stream size                              : 480 MiB (2%)
  78. Title                                    : The.Greatest.Showman.2017.2160p.BluRay.x265.10bit.SDR.DTS-HD.MA.TrueHD.7.1.Atmos-SWTYBLZ
  79. Language                                 : English
  80. Service kind                             : Complete Main
  81. Default                                  : No
  82. Forced                                   : No

  83. Text #1
  84. ID                                       : 5
  85. Format                                   : UTF-8
  86. Codec ID                                 : S_TEXT/UTF8
  87. Codec ID/Info                            : UTF-8 Plain Text
  88. Duration                                 : 1 h 43 min
  89. Bit rate                                 : 71 b/s
  90. Count of elements                        : 1744
  91. Stream size                              : 54.5 KiB (0%)
  92. Title                                    : English-SRT
  93. Default                                  : No
  94. Forced                                   : No

  95. Text #2
  96. ID                                       : 6
  97. Format                                   : PGS
  98. Muxing mode                              : zlib
  99. Codec ID                                 : S_HDMV/PGS
  100. Codec ID/Info                            : Picture based subtitle format used on BDs/HD-DVDs
  101. Duration                                 : 1 h 43 min
  102. Bit rate                                 : 51.5 kb/s
  103. Count of elements                        : 3728
  104. Stream size                              : 38.1 MiB (0%)
  105. Title                                    : English-PGS
  106. Language                                 : English
  107. Default                                  : Yes
  108. Forced                                   : No

  109. Text #3
  110. ID                                       : 7
  111. Format                                   : PGS
  112. Muxing mode                              : zlib
  113. Codec ID                                 : S_HDMV/PGS
  114. Codec ID/Info                            : Picture based subtitle format used on BDs/HD-DVDs
  115. Duration                                 : 1 h 43 min
  116. Bit rate                                 : 38.9 kb/s
  117. Count of elements                        : 2932
  118. Stream size                              : 28.9 MiB (0%)
  119. Title                                    : Spanish-PGS
  120. Language                                 : Spanish
  121. Default                                  : No
  122. Forced                                   : No

  123. Text #4
  124. ID                                       : 8
  125. Format                                   : PGS
  126. Muxing mode                              : zlib
  127. Codec ID                                 : S_HDMV/PGS
  128. Codec ID/Info                            : Picture based subtitle format used on BDs/HD-DVDs
  129. Duration                                 : 1 h 44 min
  130. Bit rate                                 : 41.9 kb/s
  131. Count of elements                        : 3367
  132. Stream size                              : 31.3 MiB (0%)
  133. Title                                    : French-PGS
  134. Language                                 : French
  135. Default                                  : No
  136. Forced                                   : No

  137. Text #5
  138. ID                                       : 9
  139. Format                                   : PGS
  140. Muxing mode                              : zlib
  141. Codec ID                                 : S_HDMV/PGS
  142. Codec ID/Info                            : Picture based subtitle format used on BDs/HD-DVDs
  143. Duration                                 : 1 h 43 min
  144. Bit rate                                 : 33.0 kb/s
  145. Count of elements                        : 2706
  146. Stream size                              : 24.5 MiB (0%)
  147. Title                                    : French-PGS
  148. Language                                 : French
  149. Default                                  : No
  150. Forced                                   : No

  151. Text #6
  152. ID                                       : 10
  153. Format                                   : PGS
  154. Muxing mode                              : zlib
  155. Codec ID                                 : S_HDMV/PGS
  156. Codec ID/Info                            : Picture based subtitle format used on BDs/HD-DVDs
  157. Duration                                 : 1 h 43 min
  158. Bit rate                                 : 38.0 kb/s
  159. Count of elements                        : 2984
  160. Stream size                              : 28.2 MiB (0%)
  161. Title                                    : Spanish-PGS
  162. Language                                 : Spanish
  163. Default                                  : No
  164. Forced                                   : No

  165. Text #7
  166. ID                                       : 11
  167. Format                                   : PGS
  168. Muxing mode                              : zlib
  169. Codec ID                                 : S_HDMV/PGS
  170. Codec ID/Info                            : Picture based subtitle format used on BDs/HD-DVDs
  171. Duration                                 : 1 h 43 min
  172. Bit rate                                 : 33.8 kb/s
  173. Count of elements                        : 2254
  174. Stream size                              : 25.1 MiB (0%)
  175. Title                                    : Danish-PGS
  176. Language                                 : Danish
  177. Default                                  : No
  178. Forced                                   : No

  179. Text #8
  180. ID                                       : 12
  181. Format                                   : PGS
  182. Muxing mode                              : zlib
  183. Codec ID                                 : S_HDMV/PGS
  184. Codec ID/Info                            : Picture based subtitle format used on BDs/HD-DVDs
  185. Duration                                 : 1 h 43 min
  186. Bit rate                                 : 36.0 kb/s
  187. Count of elements                        : 2556
  188. Stream size                              : 26.7 MiB (0%)
  189. Title                                    : Dutch-PGS
  190. Language                                 : Dutch
  191. Default                                  : No
  192. Forced                                   : No

  193. Text #9
  194. ID                                       : 13
  195. Format                                   : PGS
  196. Muxing mode                              : zlib
  197. Codec ID                                 : S_HDMV/PGS
  198. Codec ID/Info                            : Picture based subtitle format used on BDs/HD-DVDs
  199. Duration                                 : 1 h 43 min
  200. Bit rate                                 : 36.4 kb/s
  201. Count of elements                        : 2964
  202. Stream size                              : 27.0 MiB (0%)
  203. Title                                    : Finnish-PGS
  204. Language                                 : Finnish
  205. Default                                  : No
  206. Forced                                   : No

  207. Text #10
  208. ID                                       : 14
  209. Format                                   : PGS
  210. Muxing mode                              : zlib
  211. Codec ID                                 : S_HDMV/PGS
  212. Codec ID/Info                            : Picture based subtitle format used on BDs/HD-DVDs
  213. Duration                                 : 1 h 43 min
  214. Bit rate                                 : 41.2 kb/s
  215. Count of elements                        : 2602
  216. Stream size                              : 30.6 MiB (0%)
  217. Title                                    : German-PGS
  218. Language                                 : German
  219. Default                                  : No
  220. Forced                                   : No

  221. Text #11
  222. ID                                       : 15
  223. Format                                   : PGS
  224. Muxing mode                              : zlib
  225. Codec ID                                 : S_HDMV/PGS
  226. Codec ID/Info                            : Picture based subtitle format used on BDs/HD-DVDs
  227. Duration                                 : 1 h 43 min
  228. Bit rate                                 : 41.0 kb/s
  229. Count of elements                        : 2948
  230. Stream size                              : 30.4 MiB (0%)
  231. Title                                    : Italian-PGS
  232. Language                                 : Italian
  233. Default                                  : No
  234. Forced                                   : No

  235. Text #12
  236. ID                                       : 16
  237. Format                                   : PGS
  238. Muxing mode                              : zlib
  239. Codec ID                                 : S_HDMV/PGS
  240. Codec ID/Info                            : Picture based subtitle format used on BDs/HD-DVDs
  241. Duration                                 : 1 h 43 min
  242. Bit rate                                 : 39.3 kb/s
  243. Count of elements                        : 2978
  244. Stream size                              : 29.2 MiB (0%)
  245. Title                                    : Norwegian-PGS
  246. Language                                 : Norwegian
  247. Default                                  : No
  248. Forced                                   : No

  249. Text #13
  250. ID                                       : 17
  251. Format                                   : PGS
  252. Muxing mode                              : zlib
  253. Codec ID                                 : S_HDMV/PGS
  254. Codec ID/Info                            : Picture based subtitle format used on BDs/HD-DVDs
  255. Duration                                 : 1 h 43 min
  256. Bit rate                                 : 39.7 kb/s
  257. Count of elements                        : 2966
  258. Stream size                              : 29.5 MiB (0%)
  259. Title                                    : Swedish-PGS
  260. Language                                 : Swedish
  261. Default                                  : No
  262. Forced                                   : No

  263. Text #14
  264. ID                                       : 18
  265. Format                                   : PGS
  266. Muxing mode                              : zlib
  267. Codec ID                                 : S_HDMV/PGS
  268. Codec ID/Info                            : Picture based subtitle format used on BDs/HD-DVDs
  269. Duration                                 : 1 h 43 min
  270. Bit rate                                 : 30.5 kb/s
  271. Count of elements                        : 3018
  272. Stream size                              : 22.6 MiB (0%)
  273. Title                                    : Chinese-PGS
  274. Language                                 : Chinese
  275. Default                                  : No
  276. Forced                                   : No

  277. Text #15
  278. ID                                       : 19
  279. Format                                   : PGS
  280. Muxing mode                              : zlib
  281. Codec ID                                 : S_HDMV/PGS
  282. Codec ID/Info                            : Picture based subtitle format used on BDs/HD-DVDs
  283. Duration                                 : 1 h 44 min
  284. Bit rate                                 : 39.4 kb/s
  285. Count of elements                        : 3032
  286. Stream size                              : 29.5 MiB (0%)
  287. Title                                    : Czech-PGS
  288. Language                                 : Czech
  289. Default                                  : No
  290. Forced                                   : No

  291. Text #16
  292. ID                                       : 20
  293. Format                                   : PGS
  294. Muxing mode                              : zlib
  295. Codec ID                                 : S_HDMV/PGS
  296. Codec ID/Info                            : Picture based subtitle format used on BDs/HD-DVDs
  297. Duration                                 : 1 h 43 min
  298. Bit rate                                 : 29.2 kb/s
  299. Count of elements                        : 2994
  300. Stream size                              : 21.7 MiB (0%)
  301. Title                                    : Chinese-PGS
  302. Language                                 : Chinese
  303. Default                                  : No
  304. Forced                                   : No

  305. Text #17
  306. ID                                       : 21
  307. Format                                   : PGS
  308. Muxing mode                              : zlib
  309. Codec ID                                 : S_HDMV/PGS
  310. Codec ID/Info                            : Picture based subtitle format used on BDs/HD-DVDs
  311. Duration                                 : 1 h 43 min
  312. Bit rate                                 : 34.3 kb/s
  313. Count of elements                        : 2852
  314. Stream size                              : 25.5 MiB (0%)
  315. Title                                    : Polish-PGS
  316. Language                                 : Polish
  317. Default                                  : No
  318. Forced                                   : No

  319. Text #18
  320. ID                                       : 22
  321. Format                                   : PGS
  322. Muxing mode                              : zlib
  323. Codec ID                                 : S_HDMV/PGS
  324. Codec ID/Info                            : Picture based subtitle format used on BDs/HD-DVDs
  325. Duration                                 : 1 h 44 min
  326. Bit rate                                 : 29.0 kb/s
  327. Count of elements                        : 1950
  328. Stream size                              : 21.7 MiB (0%)
  329. Title                                    : Japanese-PGS
  330. Language                                 : Japanese
  331. Default                                  : No
  332. Forced                                   : No

  333. Text #19
  334. ID                                       : 23
  335. Format                                   : PGS
  336. Muxing mode                              : zlib
  337. Codec ID                                 : S_HDMV/PGS
  338. Codec ID/Info                            : Picture based subtitle format used on BDs/HD-DVDs
  339. Duration                                 : 1 h 43 min
  340. Bit rate                                 : 167 kb/s
  341. Count of elements                        : 5256
  342. Stream size                              : 124 MiB (0%)
  343. Title                                    : English
  344. Language                                 : English
  345. Default                                  : No
  346. Forced                                   : No

  347. Menu
  348. 00:00:00.000                             : en:Chapter 1
  349. 00:03:21.618                             : en:Chapter 2
  350. 00:11:33.984                             : en:Chapter 3
  351. 00:16:21.313                             : en:Chapter 4
  352. 00:21:13.730                             : en:Chapter 5
  353. 00:25:04.169                             : en:Chapter 6
  354. 00:32:10.178                             : en:Chapter 7
  355. 00:36:09.625                             : en:Chapter 8
  356. 00:41:38.412                             : en:Chapter 9
  357. 00:44:41.053                             : en:Chapter 10
  358. 00:48:24.151                             : en:Chapter 11
  359. 00:53:11.146                             : en:Chapter 12
  360. 00:56:20.710                             : en:Chapter 13
  361. 01:01:34.816                             : en:Chapter 14
  362. 01:07:33.883                             : en:Chapter 15
  363. 01:12:00.983                             : en:Chapter 16
  364. 01:18:23.699                             : en:Chapter 17
  365. 01:22:07.130                             : en:Chapter 18
  366. 01:29:04.797                             : en:Chapter 19
  367. 01:37:09.448                             : en:Chapter 20

复制代码
复制代码
221122hz2ambki4zozc4im.jpg 221122gamxnxmmkx98dbb6.jpg 221123urd88o0z94xs4x88.jpg 221123lbocr729ff8qo4fz.jpg 221123rrzyp4pyp745ttyy.jpg 221124xbzcmvqvapuucvqu.jpg 221124ys79x574h7b6zzzh.jpg







回复

使用道具 举报

蓝光币
189
发表于 2018-4-13 14:36:34 | 显示全部楼层
真是难得给力的帖子啊。
回复 支持 反对

使用道具 举报

懒得打字嘛,点击右侧快捷回复 【右侧内容,后台自定义】
您需要登录后才可以回帖 登录 | 立即加入

本版积分规则

Archiver|小黑屋| 蓝光电影网 |网站地图

Copyright © 2021 Comsenz Inc. Powered by 蓝光电影网

蓝光电影网

本站内容由用户自主分享和转载自互联网,转载目的在于传递更多信息,并不代表本网赞同其观点和对其真实性负责。

如有侵权、违反国家法律政策行为,请联系我们,我们会第一时间及时清除和处理!

举报反馈邮箱:[email protected]

快速回复 返回顶部 返回列表