找回密码

蓝光电影网

查看: 7482|回复: 7

马戏之王/大娱乐家 The.Greatest.Showman.2017.2160p.BluRay.x264.8bit.SDR.DTS-HD.MA.TrueHD.7.1.Atmos-SWTYBLZ 27.49GB

  [复制链接]
蓝光币
623
发表于 2018-4-8 11:36:39 | 显示全部楼层 |阅读模式
221155j506ao336535z0s3.jpg
◎译  名 马戏之王/大文娱家(港/台)/地球最强秀/地球最强马戏演员/全球最巨大的马戏演员/大秀之王
◎片  名 The Greatest Showman
◎年  代 2017
◎产  地 美国
◎类  别 剧情/列传/歌舞
◎语  言 英语
◎上映日期 2017-12-20(美国)/2018-02-01(中国大陆)
◎IMDb评分  7.8/10 from 99,168 users
◎IMDb链接  http://www.imdb.com/title/tt1485796/
◎豆瓣评分 7.9/10 from 68,209 users
◎豆瓣链接 https://movie.douban.com/subject/3914513/
◎片  长 105分钟/106分钟(中国大陆)
◎导  演 迈克尔·格雷西 Michael Gracey
◎主  演 休·杰克曼 Hugh Jackman
      米歇尔·威廉姆斯 Michelle Williams
      扎克·埃夫隆 Zac Efron
      赞达亚 Zendaya
      丽贝卡·弗格森 Rebecca Ferguson
      奥丝汀·约翰森 Austyn Johnson
      卡梅伦·丝蕾 Cameron Seely
      基拉·塞特尔 Keala Settle
      萨姆·汉弗莱 Sam Humphrey
      叶海亚·阿卜杜勒-迈丁 Yahya Abdul-Mateen II
      埃里克·安德森 Eric Anderson
      伊利斯·鲁宾 Ellis Rubin
      斯凯勒·杜恩 Skylar Dunn
      丹尼尔·埃维里奇 Daniel Everidge
      拉杜·斯平格尔 Radu Spinghel
      小森优作 Yusaku Komori
      丹尼尔·松 Danial Son
      保罗·斯帕克斯 Paul Sparks
      威尔·斯文森 Will Swenson

◎简  介

  《马戏之王》取材自真人真事,好莱坞万能巨星休·杰克曼在片中饰演“马戏团鼻祖”、传奇人物P.T.巴纳姆。故事报告了身处社会底层的巴纳姆依靠自己无穷设想力和锲而不舍的精神,从经营博物馆到一手开创天下上第一家马戏团的故事。巴纳姆的奇思妙想最起头并不被公共所认可,几近没人花钱欣赏,他的家人好友帮他度过一次次绝境。在履历了一系列挫折、与合作伙伴的分歧以后,秉持胡想的他终究成为全美甚至全天下最为著名的“造梦大师”。

◎获奖情况

  第90届奥斯卡金像奖  (2018)
  最好原创歌曲(提名) 本吉·帕塞克 / 贾斯廷·保罗

  第75届金球奖  (2018)
  电影类 最好音乐/笑剧片(提名)
  电影类 音乐/笑剧片最好男配角(提名) 休·杰克曼
  电影类 最好原创歌曲

  第23届美国批评家挑选电影奖  (2018)
  最好歌曲(提名)



  1. Video
  2. ID                                       : 1
  3. Format                                   : AVC
  4. Format/Info                              : Advanced Video Codec
  5. Format profile                           : [email][email protected][/email]
  6. Format settings                          : CABAC / 5 Ref Frames
  7. Format settings, CABAC                   : Yes
  8. Format settings, RefFrames               : 5 frames
  9. Codec ID                                 : V_MPEG4/ISO/AVC
  10. Duration                                 : 1 h 44 min
  11. Bit rate                                 : 27.3 Mb/s
  12. Width                                    : 3 840 pixels
  13. Height                                   : 1 600 pixels
  14. Display aspect ratio                     : 2.40:1
  15. Frame rate mode                          : Constant
  16. Frame rate                               : 23.976 (24000/1001) FPS
  17. Color space                              : YUV
  18. Chroma subsampling                       : 4:2:0
  19. Bit depth                                : 8 bits
  20. Scan type                                : Progressive
  21. Bits/(Pixel*Frame)                       : 0.185
  22. Stream size                              : 20.0GB (73%)
  23. Title                                    : The.Greatest.Showman.2017.2160p.BluRay.x264.8bit.SDR.DTS-HD.MA.TrueHD.7.1.Atmos-SWTYBLZ
  24. Writing library                          : x264 core 148 r2748 97eaef2
  25. Encoding settings                        : cabac=1 / ref=5 / deblock=1:-1:-1 / analyse=0x3:0x113 / me=umh / subme=10 / psy=1 / psy_rd=1.00:0.15 / mixed_ref=1 / me_range=48 / chroma_me=1 / trellis=2 / 8x8dct=1 / cqm=0 / deadzone=21,11 / fast_pskip=1 / chroma_qp_offset=-3 / threads=50 / lookahead_threads=4 / sliced_threads=0 / nr=0 / decimate=0 / interlaced=0 / bluray_compat=0 / constrained_intra=0 / bframes=3 / b_pyramid=2 / b_adapt=2 / b_bias=0 / direct=3 / weightb=1 / open_gop=0 / weightp=2 / keyint=250 / keyint_min=23 / scenecut=40 / intra_refresh=0 / rc_lookahead=50 / rc=crf / mbtree=1 / crf=18.0 / qcomp=0.60 / qpmin=0 / qpmax=69 / qpstep=4 / ip_ratio=1.40 / aq=1:1.00
  26. Default                                  : Yes
  27. Forced                                   : No

  28. Audio #1
  29. ID                                       : 2
  30. Format                                   : TrueHD
  31. Format profile                           : TrueHD+Atmos / TrueHD
  32. Codec ID                                 : A_TRUEHD
  33. Duration                                 : 1 h 44 min
  34. Bit rate mode                            : Variable
  35. Bit rate                                 : 4 572 kb/s
  36. Maximum bit rate                         : 7 779 kb/s
  37. Channel(s)                               : Object Based / 8 channels
  38. Channel positions                        : Object Based / Front: L C R, Side: L R, Back: L R, LFE
  39. Sampling rate                            :  / 48.0 kHz
  40. Frame rate                               : 1 200.000 FPS (40 SPF)
  41. Compression mode                         : Lossless
  42. Stream size                              : 3.35GB (12%)
  43. Title                                    : The.Greatest.Showman.2017.2160p.BluRay.x264.8bit.SDR.DTS-HD.MA.TrueHD.7.1.Atmos-SWTYBLZ
  44. Language                                 : English
  45. Default                                  : Yes
  46. Forced                                   : No

  47. Audio #2
  48. ID                                       : 3
  49. Format                                   : DTS
  50. Format/Info                              : Digital Theater Systems
  51. Format profile                           : MA / Core
  52. Codec ID                                 : A_DTS
  53. Duration                                 : 1 h 44 min
  54. Bit rate mode                            : Variable / Constant
  55. Bit rate                                 : 4 427 kb/s / 1 509 kb/s
  56. Channel(s)                               : 8 channels / 6 channels
  57. Channel positions                        : Front: L C R, Side: L R, Back: L R, LFE / Front: L C R, Side: L R, LFE
  58. Sampling rate                            : 48.0 kHz
  59. Frame rate                               : 93.750 FPS (512 SPF)
  60. Bit depth                                : 24 bits
  61. Compression mode                         : Lossless / Lossy
  62. Stream size                              : 3.24GB (12%)
  63. Title                                    : The.Greatest.Showman.2017.2160p.BluRay.x264.8bit.SDR.DTS-HD.MA.TrueHD.7.1.Atmos-SWTYBLZ
  64. Language                                 : English
  65. Default                                  : No
  66. Forced                                   : No

  67. Audio #3
  68. ID                                       : 4
  69. Format                                   : AC-3
  70. Format/Info                              : Audio Coding 3
  71. Codec ID                                 : A_AC3
  72. Duration                                 : 1 h 44 min
  73. Bit rate mode                            : Constant
  74. Bit rate                                 : 640 kb/s
  75. Channel(s)                               : 6 channels
  76. Channel positions                        : Front: L C R, Side: L R, LFE
  77. Sampling rate                            : 48.0 kHz
  78. Frame rate                               : 31.250 FPS (1536 SPF)
  79. Bit depth                                : 16 bits
  80. Compression mode                         : Lossy
  81. Stream size                              : 480 MiB (2%)
  82. Title                                    : The.Greatest.Showman.2017.2160p.BluRay.x264.8bit.SDR.DTS-HD.MA.TrueHD.7.1.Atmos-SWTYBLZ
  83. Language                                 : English
  84. Service kind                             : Complete Main
  85. Default                                  : No
  86. Forced                                   : No

  87. Text #1
  88. ID                                       : 5
  89. Format                                   : UTF-8
  90. Codec ID                                 : S_TEXT/UTF8
  91. Codec ID/Info                            : UTF-8 Plain Text
  92. Duration                                 : 1 h 43 min
  93. Bit rate                                 : 71 b/s
  94. Count of elements                        : 1744
  95. Stream size                              : 54.5 KiB (0%)
  96. Title                                    : English-SRT
  97. Default                                  : No
  98. Forced                                   : No

  99. Text #2
  100. ID                                       : 6
  101. Format                                   : PGS
  102. Muxing mode                              : zlib
  103. Codec ID                                 : S_HDMV/PGS
  104. Codec ID/Info                            : Picture based subtitle format used on BDs/HD-DVDs
  105. Duration                                 : 1 h 43 min
  106. Bit rate                                 : 51.5 kb/s
  107. Count of elements                        : 3728
  108. Stream size                              : 38.1 MiB (0%)
  109. Title                                    : English-PGS
  110. Language                                 : English
  111. Default                                  : Yes
  112. Forced                                   : No

  113. Text #3
  114. ID                                       : 7
  115. Format                                   : PGS
  116. Muxing mode                              : zlib
  117. Codec ID                                 : S_HDMV/PGS
  118. Codec ID/Info                            : Picture based subtitle format used on BDs/HD-DVDs
  119. Duration                                 : 1 h 43 min
  120. Bit rate                                 : 38.9 kb/s
  121. Count of elements                        : 2932
  122. Stream size                              : 28.9 MiB (0%)
  123. Title                                    : Spanish-PGS
  124. Language                                 : Spanish
  125. Default                                  : No
  126. Forced                                   : No

  127. Text #4
  128. ID                                       : 8
  129. Format                                   : PGS
  130. Muxing mode                              : zlib
  131. Codec ID                                 : S_HDMV/PGS
  132. Codec ID/Info                            : Picture based subtitle format used on BDs/HD-DVDs
  133. Duration                                 : 1 h 44 min
  134. Bit rate                                 : 41.9 kb/s
  135. Count of elements                        : 3367
  136. Stream size                              : 31.3 MiB (0%)
  137. Title                                    : French-PGS
  138. Language                                 : French
  139. Default                                  : No
  140. Forced                                   : No

  141. Text #5
  142. ID                                       : 9
  143. Format                                   : PGS
  144. Muxing mode                              : zlib
  145. Codec ID                                 : S_HDMV/PGS
  146. Codec ID/Info                            : Picture based subtitle format used on BDs/HD-DVDs
  147. Duration                                 : 1 h 43 min
  148. Bit rate                                 : 33.0 kb/s
  149. Count of elements                        : 2706
  150. Stream size                              : 24.5 MiB (0%)
  151. Title                                    : French-PGS
  152. Language                                 : French
  153. Default                                  : No
  154. Forced                                   : No

  155. Text #6
  156. ID                                       : 10
  157. Format                                   : PGS
  158. Muxing mode                              : zlib
  159. Codec ID                                 : S_HDMV/PGS
  160. Codec ID/Info                            : Picture based subtitle format used on BDs/HD-DVDs
  161. Duration                                 : 1 h 43 min
  162. Bit rate                                 : 38.0 kb/s
  163. Count of elements                        : 2984
  164. Stream size                              : 28.2 MiB (0%)
  165. Title                                    : Spanish-PGS
  166. Language                                 : Spanish
  167. Default                                  : No
  168. Forced                                   : No

  169. Text #7
  170. ID                                       : 11
  171. Format                                   : PGS
  172. Muxing mode                              : zlib
  173. Codec ID                                 : S_HDMV/PGS
  174. Codec ID/Info                            : Picture based subtitle format used on BDs/HD-DVDs
  175. Duration                                 : 1 h 43 min
  176. Bit rate                                 : 33.8 kb/s
  177. Count of elements                        : 2254
  178. Stream size                              : 25.1 MiB (0%)
  179. Title                                    : Danish-PGS
  180. Language                                 : Danish
  181. Default                                  : No
  182. Forced                                   : No

  183. Text #8
  184. ID                                       : 12
  185. Format                                   : PGS
  186. Muxing mode                              : zlib
  187. Codec ID                                 : S_HDMV/PGS
  188. Codec ID/Info                            : Picture based subtitle format used on BDs/HD-DVDs
  189. Duration                                 : 1 h 43 min
  190. Bit rate                                 : 36.0 kb/s
  191. Count of elements                        : 2556
  192. Stream size                              : 26.7 MiB (0%)
  193. Title                                    : Dutch-PGS
  194. Language                                 : Dutch
  195. Default                                  : No
  196. Forced                                   : No

  197. Text #9
  198. ID                                       : 13
  199. Format                                   : PGS
  200. Muxing mode                              : zlib
  201. Codec ID                                 : S_HDMV/PGS
  202. Codec ID/Info                            : Picture based subtitle format used on BDs/HD-DVDs
  203. Duration                                 : 1 h 43 min
  204. Bit rate                                 : 36.4 kb/s
  205. Count of elements                        : 2964
  206. Stream size                              : 27.0 MiB (0%)
  207. Title                                    : Finnish-PGS
  208. Language                                 : Finnish
  209. Default                                  : No
  210. Forced                                   : No

  211. Text #10
  212. ID                                       : 14
  213. Format                                   : PGS
  214. Muxing mode                              : zlib
  215. Codec ID                                 : S_HDMV/PGS
  216. Codec ID/Info                            : Picture based subtitle format used on BDs/HD-DVDs
  217. Duration                                 : 1 h 43 min
  218. Bit rate                                 : 41.2 kb/s
  219. Count of elements                        : 2602
  220. Stream size                              : 30.6 MiB (0%)
  221. Title                                    : German-PGS
  222. Language                                 : German
  223. Default                                  : No
  224. Forced                                   : No

  225. Text #11
  226. ID                                       : 15
  227. Format                                   : PGS
  228. Muxing mode                              : zlib
  229. Codec ID                                 : S_HDMV/PGS
  230. Codec ID/Info                            : Picture based subtitle format used on BDs/HD-DVDs
  231. Duration                                 : 1 h 43 min
  232. Bit rate                                 : 41.0 kb/s
  233. Count of elements                        : 2948
  234. Stream size                              : 30.4 MiB (0%)
  235. Title                                    : Italian-PGS
  236. Language                                 : Italian
  237. Default                                  : No
  238. Forced                                   : No

  239. Text #12
  240. ID                                       : 16
  241. Format                                   : PGS
  242. Muxing mode                              : zlib
  243. Codec ID                                 : S_HDMV/PGS
  244. Codec ID/Info                            : Picture based subtitle format used on BDs/HD-DVDs
  245. Duration                                 : 1 h 43 min
  246. Bit rate                                 : 39.3 kb/s
  247. Count of elements                        : 2978
  248. Stream size                              : 29.2 MiB (0%)
  249. Title                                    : Norwegian-PGS
  250. Language                                 : Norwegian
  251. Default                                  : No
  252. Forced                                   : No

  253. Text #13
  254. ID                                       : 17
  255. Format                                   : PGS
  256. Muxing mode                              : zlib
  257. Codec ID                                 : S_HDMV/PGS
  258. Codec ID/Info                            : Picture based subtitle format used on BDs/HD-DVDs
  259. Duration                                 : 1 h 43 min
  260. Bit rate                                 : 39.7 kb/s
  261. Count of elements                        : 2966
  262. Stream size                              : 29.5 MiB (0%)
  263. Title                                    : Swedish-PGS
  264. Language                                 : Swedish
  265. Default                                  : No
  266. Forced                                   : No

  267. Text #14
  268. ID                                       : 18
  269. Format                                   : PGS
  270. Muxing mode                              : zlib
  271. Codec ID                                 : S_HDMV/PGS
  272. Codec ID/Info                            : Picture based subtitle format used on BDs/HD-DVDs
  273. Duration                                 : 1 h 43 min
  274. Bit rate                                 : 30.5 kb/s
  275. Count of elements                        : 3018
  276. Stream size                              : 22.6 MiB (0%)
  277. Title                                    : Chinese-PGS
  278. Language                                 : Chinese
  279. Default                                  : No
  280. Forced                                   : No

  281. Text #15
  282. ID                                       : 19
  283. Format                                   : PGS
  284. Muxing mode                              : zlib
  285. Codec ID                                 : S_HDMV/PGS
  286. Codec ID/Info                            : Picture based subtitle format used on BDs/HD-DVDs
  287. Duration                                 : 1 h 44 min
  288. Bit rate                                 : 39.4 kb/s
  289. Count of elements                        : 3032
  290. Stream size                              : 29.5 MiB (0%)
  291. Title                                    : Czech-PGS
  292. Language                                 : Czech
  293. Default                                  : No
  294. Forced                                   : No

  295. Text #16
  296. ID                                       : 20
  297. Format                                   : PGS
  298. Muxing mode                              : zlib
  299. Codec ID                                 : S_HDMV/PGS
  300. Codec ID/Info                            : Picture based subtitle format used on BDs/HD-DVDs
  301. Duration                                 : 1 h 43 min
  302. Bit rate                                 : 29.2 kb/s
  303. Count of elements                        : 2994
  304. Stream size                              : 21.7 MiB (0%)
  305. Title                                    : Chinese-PGS
  306. Language                                 : Chinese
  307. Default                                  : No
  308. Forced                                   : No

  309. Text #17
  310. ID                                       : 21
  311. Format                                   : PGS
  312. Muxing mode                              : zlib
  313. Codec ID                                 : S_HDMV/PGS
  314. Codec ID/Info                            : Picture based subtitle format used on BDs/HD-DVDs
  315. Duration                                 : 1 h 43 min
  316. Bit rate                                 : 34.3 kb/s
  317. Count of elements                        : 2852
  318. Stream size                              : 25.5 MiB (0%)
  319. Title                                    : Polish-PGS
  320. Language                                 : Polish
  321. Default                                  : No
  322. Forced                                   : No

  323. Text #18
  324. ID                                       : 22
  325. Format                                   : PGS
  326. Muxing mode                              : zlib
  327. Codec ID                                 : S_HDMV/PGS
  328. Codec ID/Info                            : Picture based subtitle format used on BDs/HD-DVDs
  329. Duration                                 : 1 h 44 min
  330. Bit rate                                 : 29.0 kb/s
  331. Count of elements                        : 1950
  332. Stream size                              : 21.7 MiB (0%)
  333. Title                                    : Japanese-PGS
  334. Language                                 : Japanese
  335. Default                                  : No
  336. Forced                                   : No

  337. Text #19
  338. ID                                       : 23
  339. Format                                   : PGS
  340. Muxing mode                              : zlib
  341. Codec ID                                 : S_HDMV/PGS
  342. Codec ID/Info                            : Picture based subtitle format used on BDs/HD-DVDs
  343. Duration                                 : 1 h 43 min
  344. Bit rate                                 : 167 kb/s
  345. Count of elements                        : 5256
  346. Stream size                              : 124 MiB (0%)
  347. Title                                    : English
  348. Language                                 : English
  349. Default                                  : No
  350. Forced                                   : No

  351. Menu
  352. 00:00:00.000                             : en:Chapter 1
  353. 00:03:21.618                             : en:Chapter 2
  354. 00:11:33.984                             : en:Chapter 3
  355. 00:16:21.313                             : en:Chapter 4
  356. 00:21:13.730                             : en:Chapter 5
  357. 00:25:04.169                             : en:Chapter 6
  358. 00:32:10.178                             : en:Chapter 7
  359. 00:36:09.625                             : en:Chapter 8
  360. 00:41:38.412                             : en:Chapter 9
  361. 00:44:41.053                             : en:Chapter 10
  362. 00:48:24.151                             : en:Chapter 11
  363. 00:53:11.146                             : en:Chapter 12
  364. 00:56:20.710                             : en:Chapter 13
  365. 01:01:34.816                             : en:Chapter 14
  366. 01:07:33.883                             : en:Chapter 15
  367. 01:12:00.983                             : en:Chapter 16
  368. 01:18:23.699                             : en:Chapter 17
  369. 01:22:07.130                             : en:Chapter 18
  370. 01:29:04.797                             : en:Chapter 19
  371. 01:37:09.448                             : en:Chapter 20

复制代码
复制代码
221155ingnsnguhgwww5g4.jpg 221156px5xiora2d45w14z.jpg 221156vsxmxmbuzgmm9mdu.jpg 221157t2v22bvpvvvzov12.jpg 221157o6yjoi6z0x75abyy.jpg 221157g7zelnek53o0o7pp.jpg 221158j3h35t3hpux2370v.jpg






回复

使用道具 举报

蓝光币
143
发表于 2018-4-9 17:15:22 | 显示全部楼层

谢谢楼主分享!!!!
回复 支持 反对

使用道具 举报

蓝光币
591
发表于 2018-4-10 10:58:14 | 显示全部楼层
真是被感动的痛哭流涕……:)
回复 支持 反对

使用道具 举报

蓝光币
821
发表于 2018-4-10 19:23:40 | 显示全部楼层
强烈支持楼主ing……
回复 支持 反对

使用道具 举报

蓝光币
63
发表于 2018-4-11 00:33:09 | 显示全部楼层
怎么样?好看吗?
回复 支持 反对

使用道具 举报

蓝光币
821
发表于 2018-4-15 10:56:54 | 显示全部楼层
强烈支持楼主ing……
回复 支持 反对

使用道具 举报

蓝光币
821
发表于 2018-4-16 16:22:27 | 显示全部楼层
强烈支持楼主ing……
回复 支持 反对

使用道具 举报

蓝光币
155
发表于 2018-4-27 21:06:04 | 显示全部楼层
谢谢分享,下载看看
回复 支持 反对

使用道具 举报

懒得打字嘛,点击右侧快捷回复 【右侧内容,后台自定义】
您需要登录后才可以回帖 登录 | 立即加入

本版积分规则

Archiver|小黑屋| 蓝光电影网 |网站地图

Copyright © 2021 Comsenz Inc. Powered by 蓝光电影网

蓝光电影网

本站内容由用户自主分享和转载自互联网,转载目的在于传递更多信息,并不代表本网赞同其观点和对其真实性负责。

如有侵权、违反国家法律政策行为,请联系我们,我们会第一时间及时清除和处理!

举报反馈邮箱:[email protected]

快速回复 返回顶部 返回列表