找回密码

蓝光电影网

查看: 1109|回复: 2

[喜剧] 冒烟 Up.in.Smoke.1978.1080p.BluRay.x264-SiNNERS 7.98GB

[复制链接]
蓝光币
623
发表于 2018-4-8 15:36:09 | 显示全部楼层 |阅读模式
115451lsyycnv7q64s2s13.jpg
◎译  名 冒烟
◎片  名 Up in Smoke
◎年  代 1978
◎产  地 美国
◎类  别 笑剧/音乐
◎语  言 英语/西班牙语
◎上映日期 1978-09-15(美国)
◎IMDb评分  7.0/10 from 31,556 users
◎IMDb链接  http://www.imdb.com/title/tt0078446/
◎豆瓣评分 8.4/10 from 599 users
◎豆瓣链接 https://movie.douban.com/subject/1926106/
◎片  长 86 分钟
◎导  演 汤米·钟 Tommy Chong / 洛乌·阿德勒 Lou Adler
◎主  演 汤米·钟 Tommy Chong
      切奇·马林 Cheech Marin
      瓦尔·埃弗里 Val Avery

◎简  介

  全部电影围绕着毒品,黑色诙谐简直登峰造极.将毒品这个敏感的话题论述得轻松可笑。片中很多细节都很可笑,为了偷运大麻,他们把大嘛做成车子,后来不谨慎点着了一点,差人追上来检察,不知不觉吸入燃着后的烟竟忘了职责,然后一路上的人都"飞"了.


  1. Video
  2. ID                                       : 1
  3. Format                                   : AVC
  4. Format/Info                              : Advanced Video Codec
  5. Format profile                           : [email][email protected][/email]
  6. Format settings                          : CABAC / 5 Ref Frames
  7. Format settings, CABAC                   : Yes
  8. Format settings, RefFrames               : 5 frames
  9. Codec ID                                 : V_MPEG4/ISO/AVC
  10. Duration                                 : 1 h 25 min
  11. Bit rate                                 : 11.7 Mb/s
  12. Width                                    : 1 920 pixels
  13. Height                                   : 816 pixels
  14. Display aspect ratio                     : 2.35:1
  15. Frame rate mode                          : Constant
  16. Frame rate                               : 23.976 (24000/1001) FPS
  17. Color space                              : YUV
  18. Chroma subsampling                       : 4:2:0
  19. Bit depth                                : 8 bits
  20. Scan type                                : Progressive
  21. Bits/(Pixel*Frame)                       : 0.313
  22. Stream size                              : 7.03GB (89%)
  23. Writing library                          : x264 core 155 r2901 7d0ff22
  24. Encoding settings                        : cabac=1 / ref=5 / deblock=1:-3:-3 / analyse=0x3:0x113 / me=umh / subme=8 / psy=1 / psy_rd=1.00:0.00 / mixed_ref=1 / me_range=16 / chroma_me=1 / trellis=2 / 8x8dct=1 / cqm=0 / deadzone=21,11 / fast_pskip=0 / chroma_qp_offset=-2 / threads=18 / lookahead_threads=3 / sliced_threads=0 / nr=0 / decimate=1 / interlaced=0 / bluray_compat=0 / constrained_intra=0 / bframes=3 / b_pyramid=2 / b_adapt=1 / b_bias=0 / direct=1 / weightb=1 / open_gop=0 / weightp=2 / keyint=250 / keyint_min=23 / scenecut=40 / intra_refresh=0 / rc_lookahead=40 / rc=2pass / mbtree=1 / bitrate=11740 / ratetol=1.0 / qcomp=0.60 / qpmin=0 / qpmax=69 / qpstep=4 / cplxblur=20.0 / qblur=0.5 / ip_ratio=1.40 / aq=1:1.00
  25. Language                                 : English
  26. Default                                  : Yes
  27. Forced                                   : No

  28. Audio
  29. ID                                       : 2
  30. Format                                   : DTS
  31. Format/Info                              : Digital Theater Systems
  32. Mode                                     : 16
  33. Format settings, Endianness              : Big
  34. Codec ID                                 : A_DTS
  35. Duration                                 : 1 h 25 min
  36. Bit rate mode                            : Constant
  37. Bit rate                                 : 1 509 kb/s
  38. Channel(s)                               : 6 channels
  39. Channel positions                        : Front: L C R, Side: L R, LFE
  40. Sampling rate                            : 48.0 kHz
  41. Frame rate                               : 93.750 FPS (512 SPF)
  42. Bit depth                                : 24 bits
  43. Compression mode                         : Lossy
  44. Stream size                              : 926 MiB (11%)
  45. Language                                 : English
  46. Default                                  : Yes
  47. Forced                                   : No

  48. Text #1
  49. ID                                       : 3
  50. Format                                   : UTF-8
  51. Codec ID                                 : S_TEXT/UTF8
  52. Codec ID/Info                            : UTF-8 Plain Text
  53. Duration                                 : 1 h 25 min
  54. Bit rate                                 : 74 b/s
  55. Count of elements                        : 1286
  56. Stream size                              : 46.4 KiB (0%)
  57. Language                                 : English
  58. Default                                  : No
  59. Forced                                   : No

  60. Text #2
  61. ID                                       : 4
  62. Format                                   : UTF-8
  63. Codec ID                                 : S_TEXT/UTF8
  64. Codec ID/Info                            : UTF-8 Plain Text
  65. Duration                                 : 1 h 25 min
  66. Bit rate                                 : 80 b/s
  67. Count of elements                        : 1437
  68. Stream size                              : 50.0 KiB (0%)
  69. Title                                    : SDH
  70. Language                                 : English
  71. Default                                  : No
  72. Forced                                   : No

  73. Menu
  74. 00:00:00.000                             : en:00:00:00.000
  75. 00:06:20.839                             : en:00:06:20.839
  76. 00:16:36.829                             : en:00:16:36.829
  77. 00:22:49.118                             : en:00:22:49.118
  78. 00:28:54.983                             : en:00:28:54.983
  79. 00:38:57.669                             : en:00:38:57.669
  80. 00:49:56.368                             : en:00:49:56.368
  81. 00:56:58.582                             : en:00:56:58.582
  82. 01:04:52.680                             : en:01:04:52.680
  83. 01:15:28.733                             : en:01:15:28.733
  84. 01:21:54.910                             : en:01:21:54.910




复制代码
复制代码
115452sm2xo4c2h4c4a440.jpg







回复

使用道具 举报

懒得打字嘛,点击右侧快捷回复 【右侧内容,后台自定义】
您需要登录后才可以回帖 登录 | 立即加入

本版积分规则

Archiver|小黑屋| 蓝光电影网 |网站地图

Copyright © 2021 Comsenz Inc. Powered by 蓝光电影网

蓝光电影网

本站内容由用户自主分享和转载自互联网,转载目的在于传递更多信息,并不代表本网赞同其观点和对其真实性负责。

如有侵权、违反国家法律政策行为,请联系我们,我们会第一时间及时清除和处理!

举报反馈邮箱:[email protected]

快速回复 返回顶部 返回列表