找回密码

蓝光电影网

查看: 1130|回复: 1

[剧情] 霸天狼[国语音轨/内封中字] Sky.Hunter.2017.1080p.BluRay.x264-WiKi 9.73GB

[复制链接]
蓝光币
623
发表于 2018-4-8 22:55:29 | 显示全部楼层 |阅读模式
162403mggrgshwrr6ot22s.jpg
◎译  名 霸天狼
◎片  名 空天猎
◎年  代 2017
◎产  地 中国大陆
◎类  别 剧情/行动/战争
◎语  言 汉语普通话
◎上映日期 2017-09-29(中国大陆)
◎IMDb评分  5.4/10 from 240 users
◎IMDb链接  http://www.imdb.com/title/tt6908536/
◎豆瓣评分 5.1/10 from 43,783 users
◎豆瓣链接 https://movie.douban.com/subject/26753020/
◎片  长 115分钟
◎导  演 李晨 Chen Li
◎主  演 李晨 Chen Li
      范冰冰 Bingbing Fan
      王千源 Qianyuan Wang
      李佳航 Jiahang Li
      赵达 Da Zhao
      李晨浩 Leon Lee
      郭洺宇 Mingyu Guo
      叶浏 Liu Ye
      陆思宇 Siyu Lu
      托马尔·奥兹 Tomer Oz
      吴秀波 Xiubo Wu
      邓超 Chao Deng
      王学圻 Xueqi Wang

◎简  介

  一场空天疆场的猎杀传奇。霸天狼,一支奥秘的空军顶级团队,每一位飞翔员都是“金头盔” 级此外王牌飞翔员,吴迪(李晨 饰)、亚莉(范冰冰 饰)、巴图(郭洺宇 饰)、高原(李晨浩 饰)经过层层考核,成为了霸天狼奥秘基地的一员。可谁也没有想到,吴迪的好友浩辰(李佳航 饰)却在使命中堕入一场境外战乱的诡计。更大的威胁相继而至,可骇势力突 发其来的导弹危机和人质危机,空前地应战着中国空军的实战才能!十万急切之下,最新式 的中国战机和最顶级的飞翔员,与把握导弹密码和先辈战机的仇敌,在境外天空展开一场生死对决......


  1. Video
  2. ID                                       : 1
  3. Format                                   : AVC
  4. Format/Info                              : Advanced Video Codec
  5. Format profile                           : [email protected]
  6. Format settings                          : CABAC / 5 Ref Frames
  7. Format settings, CABAC                   : Yes
  8. Format settings, ReFrames                : 5 frames
  9. Codec ID                                 : V_MPEG4/ISO/AVC
  10. Duration                                 : 1 h 55 min
  11. Bit rate                                 : 11.5 Mb/s
  12. Width                                    : 1 920 pixels
  13. Height                                   : 802 pixels
  14. Display aspect ratio                     : 2.40:1
  15. Frame rate mode                          : Constant
  16. Frame rate                               : 24.000 FPS
  17. Color space                              : YUV
  18. Chroma subsampling                       : 4:2:0
  19. Bit depth                                : 8 bits
  20. Scan type                                : Progressive
  21. Bits/(Pixel*Frame)                       : 0.311
  22. Stream size                              : 9.21GB (95%)
  23. Writing library                          : x264 core 129 r2245+704+36 8e61944 tMod+MixAQ [[email protected]:2:0 X86_64]
  24. Encoding settings                        : cabac=1 / ref=5 / deblock=1:-3:-3 / analyse=0x3:0x133 / me=umh / subme=11 / psy=1 / fade_compensate=0.00 / psy_rd=1.05:0.10 / mixed_ref=1 / me_range=64 / chroma_me=1 / trellis=2 / 8x8dct=1 / cqm=0 / deadzone=21,11 / fast_pskip=0 / chroma_qp_offset=-3 / threads=18 / lookahead_threads=3 / sliced_threads=0 / nr=0 / decimate=0 / interlaced=0 / bluray_compat=0 / constrained_intra=0 / fgo=0 / bframes=10 / b_pyramid=2 / b_adapt=2 / b_bias=0 / direct=3 / weightb=1 / open_gop=0 / weightp=2 / keyint=250 / keyint_min=24 / scenecut=40 / intra_refresh=0 / rc=2pass / mbtree=0 / bitrate=11488 / ratetol=1.0 / qcomp=0.70 / qpmin=0 / qpmax=69 / qpstep=4 / cplxblur=20.0 / qblur=0.5 / ip_ratio=1.40 / pb_ratio=1.30 / aq=1 / aq-strength=0.85 / aq-sensitivity=10.00 / aq-ifactor=1.00 / aq-pfactor=1.00 / aq-bfactor=1.00 / aq2=0
  25. Language                                 : Chinese
  26. Default                                  : Yes
  27. Forced                                   : No

  28. Audio
  29. ID                                       : 2
  30. Format                                   : AC-3
  31. Format/Info                              : Audio Coding 3
  32. Codec ID                                 : A_AC3
  33. Duration                                 : 1 h 55 min
  34. Bit rate mode                            : Constant
  35. Bit rate                                 : 640 kb/s
  36. Channel(s)                               : 6 channels
  37. Channel positions                        : Front: L C R, Side: L R, LFE
  38. Sampling rate                            : 48.0 kHz
  39. Frame rate                               : 31.250 FPS (1536 SPF)
  40. Bit depth                                : 16 bits
  41. Compression mode                         : Lossy
  42. Stream size                              : 527 MiB (5%)
  43. Language                                 : Chinese
  44. Service kind                             : Complete Main
  45. Default                                  : Yes
  46. Forced                                   : No

  47. Text #1
  48. ID                                       : 3
  49. Format                                   : UTF-8
  50. Codec ID                                 : S_TEXT/UTF8
  51. Codec ID/Info                            : UTF-8 Plain Text
  52. Duration                                 : 1 h 43 min
  53. Bit rate                                 : 35 b/s
  54. Count of elements                        : 1261
  55. Stream size                              : 27.2 KiB (0%)
  56. Title                                    : Simplified
  57. Language                                 : Chinese
  58. Default                                  : Yes
  59. Forced                                   : No

  60. Text #2
  61. ID                                       : 4
  62. Format                                   : UTF-8
  63. Codec ID                                 : S_TEXT/UTF8
  64. Codec ID/Info                            : UTF-8 Plain Text
  65. Duration                                 : 1 h 43 min
  66. Bit rate                                 : 35 b/s
  67. Count of elements                        : 1261
  68. Stream size                              : 27.2 KiB (0%)
  69. Title                                    : Traditional
  70. Language                                 : Chinese
  71. Default                                  : No
  72. Forced                                   : No

  73. Menu
  74. 00:00:00.000                             : en:00:00:00.000
  75. 00:06:12.750                             : en:00:06:12.750
  76. 00:11:53.458                             : en:00:11:53.458
  77. 00:16:20.458                             : en:00:16:20.458
  78. 00:21:21.833                             : en:00:21:21.833
  79. 00:26:30.875                             : en:00:26:30.875
  80. 00:33:06.625                             : en:00:33:06.625
  81. 00:37:34.000                             : en:00:37:34.000
  82. 00:43:19.125                             : en:00:43:19.125
  83. 00:50:11.208                             : en:00:50:11.208
  84. 00:57:22.625                             : en:00:57:22.625
  85. 01:01:42.125                             : en:01:01:42.125
  86. 01:06:19.250                             : en:01:06:19.250
  87. 01:11:45.750                             : en:01:11:45.750
  88. 01:17:08.083                             : en:01:17:08.083
  89. 01:22:43.375                             : en:01:22:43.375
  90. 01:26:37.166                             : en:01:26:37.166
  91. 01:34:41.500                             : en:01:34:41.500
  92. 01:40:40.500                             : en:01:40:40.500
  93. 01:46:36.000                             : en:01:46:36.000



复制代码
复制代码
162404glppi3zl3bswjkjb.jpg 162404qm5zl508tz1530pj.jpg 162404iwpeu6zyh3v1k36q.jpg







回复

使用道具 举报

懒得打字嘛,点击右侧快捷回复 【右侧内容,后台自定义】
您需要登录后才可以回帖 登录 | 立即加入

本版积分规则

Archiver|小黑屋| 蓝光电影网 |网站地图

Copyright © 2021 Comsenz Inc. Powered by 蓝光电影网

蓝光电影网

本站内容由用户自主分享和转载自互联网,转载目的在于传递更多信息,并不代表本网赞同其观点和对其真实性负责。

如有侵权、违反国家法律政策行为,请联系我们,我们会第一时间及时清除和处理!

举报反馈邮箱:[email protected]

快速回复 返回顶部 返回列表