找回密码

蓝光电影网

查看: 2235|回复: 3

[剧情] 霸天狼[国语音轨/内封中字] Sky.Hunter.2017.1080p.BluRay.x264.TrueHD5.1-CHD 10.60GB

[复制链接]
蓝光币
623
发表于 2018-4-8 22:55:57 | 显示全部楼层 |阅读模式
162437cuwsuhhshf449csz.jpg
◎译  名 霸天狼
◎片  名 空天猎
◎年  代 2017
◎产  地 中国大陆
◎类  别 剧情/行动/战争
◎语  言 汉语普通话
◎上映日期 2017-09-29(中国大陆)
◎IMDb评分  5.4/10 from 240 users
◎IMDb链接  http://www.imdb.com/title/tt6908536/
◎豆瓣评分 5.1/10 from 43,783 users
◎豆瓣链接 https://movie.douban.com/subject/26753020/
◎片  长 115分钟
◎导  演 李晨 Chen Li
◎主  演 李晨 Chen Li
      范冰冰 Bingbing Fan
      王千源 Qianyuan Wang
      李佳航 Jiahang Li
      赵达 Da Zhao
      李晨浩 Leon Lee
      郭洺宇 Mingyu Guo
      叶浏 Liu Ye
      陆思宇 Siyu Lu
      托马尔·奥兹 Tomer Oz
      吴秀波 Xiubo Wu
      邓超 Chao Deng
      王学圻 Xueqi Wang

◎简  介

  一场空天疆场的猎杀传奇。霸天狼,一支奥秘的空军顶级团队,每一位飞翔员都是“金头盔” 级此外王牌飞翔员,吴迪(李晨 饰)、亚莉(范冰冰 饰)、巴图(郭洺宇 饰)、高原(李晨浩 饰)经过层层考核,成为了霸天狼奥秘基地的一员。可谁也没有想到,吴迪的好友浩辰(李佳航 饰)却在使命中堕入一场境外战乱的诡计。更大的威胁相继而至,可骇势力突 发其来的导弹危机和人质危机,空前地应战着中国空军的实战才能!十万急切之下,最新式 的中国战机和最顶级的飞翔员,与把握导弹密码和先辈战机的仇敌,在境外天空展开一场生死对决......


  1. Video
  2. ID                                       : 1
  3. Format                                   : AVC
  4. Format/Info                              : Advanced Video Codec
  5. Format profile                           : [email protected]
  6. Format settings                          : CABAC / 4 Ref Frames
  7. Format settings, CABAC                   : Yes
  8. Format settings, ReFrames                : 4 frames
  9. Codec ID                                 : V_MPEG4/ISO/AVC
  10. Duration                                 : 1 h 55 min
  11. Bit rate                                 : 10 000 kb/s
  12. Width                                    : 1 920 pixels
  13. Height                                   : 802 pixels
  14. Display aspect ratio                     : 2.40:1
  15. Frame rate mode                          : Constant
  16. Frame rate                               : 24.000 FPS
  17. Color space                              : YUV
  18. Chroma subsampling                       : 4:2:0
  19. Bit depth                                : 8 bits
  20. Scan type                                : Progressive
  21. Bits/(Pixel*Frame)                       : 0.271
  22. Stream size                              : 8.04GB (76%)
  23. Writing library                          : x264 core 155 r2867+74 66b5600 t_mod_Custom_2 [[email protected] X86_64]
  24. Encoding settings                        : cabac=1 / ref=4 / deblock=1:-3:-3 / analyse=0x3:0x133 / me=umh / subme=11 / psy=1 / fade_compensate=0.00 / psy_rd=0.95:0.10 / mixed_ref=1 / me_range=48 / chroma_me=1 / trellis=2 / 8x8dct=1 / cqm=0 / deadzone=21,11 / fast_pskip=0 / chroma_qp_offset=-4 / threads=12 / lookahead_threads=2 / sliced_threads=0 / nr=0 / decimate=1 / interlaced=0 / bluray_compat=0 / constrained_intra=0 / fgo=0 / bframes=9 / b_pyramid=2 / b_adapt=2 / b_bias=0 / direct=3 / weightb=1 / open_gop=0 / weightp=2 / keyint=250 / keyint_min=24 / scenecut=40 / intra_refresh=0 / rc_lookahead=30 / rc=2pass / mbtree=0 / bitrate=10000 / ratetol=1.0 / qcomp=0.70 / qpmin=0:0:0 / qpmax=69:69:69 / qpstep=4 / cplxblur=20.0 / qblur=0.5 / vbv_maxrate=35000 / vbv_bufsize=35000 / nal_hrd=none / filler=0 / ip_ratio=1.40 / pb_ratio=1.30 / aq=3:1.00 / aq-sensitivity=10.00 / aq-factor=1.00:1.00:1.00 / aq2=0 / aq3=2:[0.50:0.50]:[0.50:0.50]:[0.50:0.50]:[0.50:0.50] / aq3-sensitivity=10.00 / aq3-factor=[1.00:1.00]:[1.00:1.00]:[1.00:1.00] / aq3-boundary=192:64:24
  25. Language                                 : Chinese
  26. Default                                  : Yes
  27. Forced                                   : No

  28. Audio
  29. ID                                       : 2
  30. Format                                   : TrueHD
  31. Codec ID                                 : A_TRUEHD
  32. Duration                                 : 1 h 55 min
  33. Bit rate mode                            : Variable
  34. Bit rate                                 : 3 096 kb/s
  35. Maximum bit rate                         : 5 040 kb/s
  36. Channel(s)                               : 6 channels
  37. Channel positions                        : Front: L C R, Side: L R, LFE
  38. Sampling rate                            : 96.0 kHz
  39. Frame rate                               : 2 400.000 FPS (40 SPF)
  40. Compression mode                         : Lossless
  41. Stream size                              : 2.49GB (23%)
  42. Language                                 : Chinese
  43. Default                                  : Yes
  44. Forced                                   : No

  45. Text #1
  46. ID                                       : 3
  47. Format                                   : PGS
  48. Muxing mode                              : zlib
  49. Codec ID                                 : S_HDMV/PGS
  50. Codec ID/Info                            : Picture based subtitle format used on BDs/HD-DVDs
  51. Duration                                 : 1 h 43 min
  52. Bit rate                                 : 24.0 kb/s
  53. Count of elements                        : 2058
  54. Stream size                              : 17.8 MiB (0%)
  55. Language                                 : Chinese
  56. Default                                  : Yes
  57. Forced                                   : No

  58. Text #2
  59. ID                                       : 4
  60. Format                                   : PGS
  61. Muxing mode                              : zlib
  62. Codec ID                                 : S_HDMV/PGS
  63. Codec ID/Info                            : Picture based subtitle format used on BDs/HD-DVDs
  64. Duration                                 : 1 h 43 min
  65. Bit rate                                 : 26.0 kb/s
  66. Count of elements                        : 2058
  67. Stream size                              : 19.3 MiB (0%)
  68. Language                                 : Chinese
  69. Default                                  : No
  70. Forced                                   : No



复制代码
复制代码
162437u5oi8g8dlxalxfmx.jpg 162438p3za3jzcx55zasyj.jpg 162438t2ufnp8sc52vm2lc.jpg








回复

使用道具 举报

蓝光币
398
发表于 2018-4-9 00:34:23 | 显示全部楼层
下不动啊,没资源,怎么办?:Q 百度网盘和迅雷都下不动,没资源
回复 支持 反对

使用道具 举报

蓝光币
821
发表于 2018-4-9 18:02:14 | 显示全部楼层
下载看看!!!
回复

使用道具 举报

蓝光币
262
发表于 2018-4-10 14:59:42 | 显示全部楼层
感谢楼主分享~~
回复 支持 反对

使用道具 举报

懒得打字嘛,点击右侧快捷回复 【右侧内容,后台自定义】
您需要登录后才可以回帖 登录 | 立即加入

本版积分规则

Archiver|小黑屋| 蓝光电影网 |网站地图

Copyright © 2021 Comsenz Inc. Powered by 蓝光电影网

蓝光电影网

本站内容由用户自主分享和转载自互联网,转载目的在于传递更多信息,并不代表本网赞同其观点和对其真实性负责。

如有侵权、违反国家法律政策行为,请联系我们,我们会第一时间及时清除和处理!

举报反馈邮箱:[email protected]

快速回复 返回顶部 返回列表