找回密码

蓝光电影网

查看: 2545|回复: 3

[惊悚] 触目惊心/咫尺危情 Deceived.1991.720p.BluRay.x264-SiNNERS 5.46GB

[复制链接]
蓝光币
623
发表于 2018-4-9 21:44:37 | 显示全部楼层 |阅读模式
145418d9qq2onzpz3ogxbo.jpg
◎译  名 惊心动魄/天涯危情
◎片  名 Deceived
◎年  代 1991
◎产  地 美国
◎类  别 惊悚
◎语  言 英语
◎上映日期 1991-09-27
◎IMDb评分  6.1/10 from 5,481 users
◎IMDb链接  http://www.imdb.com/title/tt0101694/
◎豆瓣评分 6.2/10 from 78 users
◎豆瓣链接 https://movie.douban.com/subject/1300194/
◎片  长 104 分钟
◎导  演 Damian Harris
◎主  演 歌蒂·韩 Goldie Hawn
      约翰·赫德 John Heard
      艾什丽·佩顿 Ashley Peldon
      比阿特丽斯·斯特雷特 Beatrice Straight

◎简  介

  艾瑞·戴维斯到饭馆和一个不曾碰面的名叫亚当·卢卡斯的汉子约会,可是她一向没有等到这小我。她发现劈面一个单身男人一边吃饭一边看她,她让侍者问问那小我能否是亚当·卢卡斯,成果阿谁男人并不是她要等的人,但他们都给对方留下了印象。
  一天,一个顾客到艾瑞的文物修复店处事,而这个顾客就是那天她在饭馆看到的男人,他自我先容叫杰克·桑德斯,是博物馆的文物馆长。他们很快坠入情网,艾瑞成了桑德斯夫人,在一年后还有了女儿玛丽。但欢畅安静的生活总是很长久,博物馆一位资深研讨员托马兹在工作室里自杀。而随后杰克因做主买进了代价450万美圆的假埃及项链而面临危机。他接到电话要到波士顿开会,但在这时代艾瑞的好友看见杰克在纽约当地的某家饭馆出没。艾瑞思疑自己的丈夫有了外遇,由于除了那家饭馆的纪念品外,她还发现丈夫宣称是在波士顿为她买的亵服也是在纽约买的。但她诘责杰克的时辰,他却奇妙地找捏词躲避了,还因今生气地分开了家。
  但未几,艾瑞却发现丈夫在一路意外车祸中灭亡,玛丽成了没有爸爸的孩子。但她在向社会保险部分支付保险金的时辰却发现丈夫一向在用他人的社会保险号交保险金,也就是说她的丈夫并不叫杰克·桑德斯,实在的杰克早在10年前就死了。她意想到自己的婚姻美满是个圈套,但自己的枕边人究竟是谁呢?她先找到了杰克·桑德斯10年前带有照片的灭亡报道,然后又和丈夫小时辰的影集做了比力。本来丈夫不外是杰克的同班好友,本名叫弗兰克。她进一步找到了杰克和弗兰克的家人,但她对丈夫为何隐瞒真相仍不了解。夜晚,玛丽说自己的屋里有人,艾瑞检查后并未发现什么。但第二天帮她扫除屋子的女佣却死在了屋子里,家里一片散乱。回到工作室艾瑞接到弗兰克母亲的告急电话,在弗兰克母亲的家中,她却发现了假死的丈夫,他宣称自己是杰克最好的朋友,杰克死后他很是悲痛,因而酿成了杰克。一个叫丹尼尔的小时辰就熟悉他的人威胁他偷换真的埃及项链。他只好假死庇护她和玛丽,他要求艾瑞找到阿谁就在家中某处的项链然后带给他。
  在找项链的时辰,艾瑞发现了丈夫的别的一张身份证,而上面的名字就是丹尼尔,杀手就是他。他按照丹尼尔的地址找到了他的别的一个家,发现他居然还有妻室,而她再次接到电话要求她把项链交出来。找到项链后,艾瑞在他们的老屋子和丈夫展开了生死较劲。


  1. Video
  2. ID                                       : 1
  3. Format                                   : AVC
  4. Format/Info                              : Advanced Video Codec
  5. Format profile                           : [email protected]
  6. Format settings                          : CABAC / 9 Ref Frames
  7. Format settings, CABAC                   : Yes
  8. Format settings, RefFrames               : 9 frames
  9. Codec ID                                 : V_MPEG4/ISO/AVC
  10. Duration                                 : 1 h 48 min
  11. Bit rate                                 : 5 708 kb/s
  12. Width                                    : 1 280 pixels
  13. Height                                   : 688 pixels
  14. Display aspect ratio                     : 1.85:1
  15. Frame rate mode                          : Constant
  16. Frame rate                               : 23.976 (24000/1001) FPS
  17. Color space                              : YUV
  18. Chroma subsampling                       : 4:2:0
  19. Bit depth                                : 8 bits
  20. Scan type                                : Progressive
  21. Bits/(Pixel*Frame)                       : 0.270
  22. Stream size                              : 4.32GB (79%)
  23. Writing library                          : x264 core 155 r2901 7d0ff22
  24. Encoding settings                        : cabac=1 / ref=9 / deblock=1:-3:-3 / analyse=0x3:0x113 / me=umh / subme=8 / psy=1 / psy_rd=1.00:0.00 / mixed_ref=1 / me_range=16 / chroma_me=1 / trellis=2 / 8x8dct=1 / cqm=0 / deadzone=21,11 / fast_pskip=0 / chroma_qp_offset=-2 / threads=18 / lookahead_threads=3 / sliced_threads=0 / nr=0 / decimate=1 / interlaced=0 / bluray_compat=0 / constrained_intra=0 / bframes=3 / b_pyramid=2 / b_adapt=1 / b_bias=0 / direct=1 / weightb=1 / open_gop=0 / weightp=2 / keyint=250 / keyint_min=23 / scenecut=40 / intra_refresh=0 / rc_lookahead=40 / rc=2pass / mbtree=1 / bitrate=5708 / ratetol=1.0 / qcomp=0.60 / qpmin=0 / qpmax=69 / qpstep=4 / cplxblur=20.0 / qblur=0.5 / ip_ratio=1.40 / aq=1:1.00
  25. Language                                 : English
  26. Default                                  : Yes
  27. Forced                                   : No

  28. Audio
  29. ID                                       : 2
  30. Format                                   : DTS
  31. Format/Info                              : Digital Theater Systems
  32. Mode                                     : 16
  33. Format settings, Endianness              : Big
  34. Codec ID                                 : A_DTS
  35. Duration                                 : 1 h 48 min
  36. Bit rate mode                            : Constant
  37. Bit rate                                 : 1 509 kb/s
  38. Channel(s)                               : 2 channels
  39. Channel positions                        : Front: L R
  40. Sampling rate                            : 48.0 kHz
  41. Frame rate                               : 93.750 FPS (512 SPF)
  42. Bit depth                                : 24 bits
  43. Compression mode                         : Lossy
  44. Delay relative to video                  : 11 s 10 ms
  45. Stream size                              : 1.14GB (21%)
  46. Language                                 : English
  47. Default                                  : Yes
  48. Forced                                   : No

  49. Text #1
  50. ID                                       : 3
  51. Format                                   : UTF-8
  52. Codec ID                                 : S_TEXT/UTF8
  53. Codec ID/Info                            : UTF-8 Plain Text
  54. Duration                                 : 1 h 41 min
  55. Bit rate                                 : 34 b/s
  56. Count of elements                        : 818
  57. Stream size                              : 25.9 KiB (0%)
  58. Language                                 : English
  59. Default                                  : No
  60. Forced                                   : No

  61. Text #2
  62. ID                                       : 4
  63. Format                                   : UTF-8
  64. Codec ID                                 : S_TEXT/UTF8
  65. Codec ID/Info                            : UTF-8 Plain Text
  66. Duration                                 : 1 h 41 min
  67. Bit rate                                 : 34 b/s
  68. Count of elements                        : 819
  69. Stream size                              : 25.9 KiB (0%)
  70. Title                                    : SDH
  71. Language                                 : English
  72. Default                                  : No
  73. Forced                                   : No

  74. Menu
  75. 00:00:00.000                             : en:00:00:00.000
  76. 00:09:43.541                             : en:00:09:43.541
  77. 00:19:56.529                             : en:00:19:56.529
  78. 00:35:56.654                             : en:00:35:56.654
  79. 00:49:20.124                             : en:00:49:20.124
  80. 01:02:14.773                             : en:01:02:14.773
  81. 01:15:56.093                             : en:01:15:56.093
  82. 01:31:23.812                             : en:01:31:23.812




复制代码
复制代码
145418xb8fwhgz8ef1e898.jpg







回复

使用道具 举报

蓝光币
918
发表于 2018-4-10 12:38:36 | 显示全部楼层
最喜欢惊悚和恐怖片,多谢楼主分享
回复 支持 反对

使用道具 举报

蓝光币
1324
发表于 2018-4-18 16:41:45 | 显示全部楼层
谢谢楼主分享!
回复 支持 反对

使用道具 举报

懒得打字嘛,点击右侧快捷回复 【右侧内容,后台自定义】
您需要登录后才可以回帖 登录 | 立即加入

本版积分规则

Archiver|小黑屋| 蓝光电影网 |网站地图

Copyright © 2021 Comsenz Inc. Powered by 蓝光电影网

蓝光电影网

本站内容由用户自主分享和转载自互联网,转载目的在于传递更多信息,并不代表本网赞同其观点和对其真实性负责。

如有侵权、违反国家法律政策行为,请联系我们,我们会第一时间及时清除和处理!

举报反馈邮箱:[email protected]

快速回复 返回顶部 返回列表