找回密码

蓝光电影网

查看: 1420|回复: 1

[剧情] 华盛顿邮报/邮报:密战 The.Post.2017.1080p.BluRay.REMUX.AVC.DTS-HD.MA.7.1-FGT 30.77GB

[复制链接]
蓝光币
623
发表于 2018-4-9 21:54:46 | 显示全部楼层 |阅读模式
171953w2wtg1zfwwt0f037.jpg
◎译  名 华盛顿邮报/邮报:密战/战云密报/邮报
◎片  名 The Post
◎年  代 2017
◎产  地 美国
◎类  别 剧情/列传/历史/惊悚
◎语  言 英语
◎上映日期 2017-12-22(美国点映)/2018-01-12(美国)
◎IMDb评分  7.2/10 from 58,564 users
◎IMDb链接  http://www.imdb.com/title/tt6294822/
◎豆瓣评分 8.2/10 from 25,622 users
◎豆瓣链接 https://movie.douban.com/subject/26990609/
◎片  长 116分钟
◎导  演 史蒂文·斯皮尔伯格 Steven Spielberg
◎主  演 梅丽尔·斯特里普 Meryl Streep
      汤姆·汉克斯 Tom Hanks
      莎拉·保罗森 Sarah Paulson
      鲍勃·奥及第克 Bob Odenkirk
      崔西·莱茨 Tracy Letts
      布莱德利·惠特福德 Bradley Whitford
      布鲁斯·格林伍德 Bruce Greenwood
      马修·瑞斯 Matthew Rhys
      爱丽森·布里 Alison Brie
      凯莉·库恩 Carrie Coon
      杰西·普莱蒙 Jesse Plemons
      大卫·克罗斯 David Cross
      扎克·伍兹 Zach Woods
      帕特·希利 Pat Healy
      约翰·鲁 John Rue
      里克·霍姆斯 Rick Holmes
      菲利普·卡斯诺夫 Philip Casnoff
      杰茜·缪勒 Jessie Mueller
      斯塔克·桑德斯 Stark Sands
      迈克尔·西里尔·克赖顿 Michael Cyril Creighton
      威尔·丹顿 Will Denton
      迪尔德丽·罗夫乔 Deirdre Lovejoy
      迈克尔·斯图巴 Michael Stuhlbarg

◎简  介

  本片聚焦1971年五角大楼保密事务。汤姆·汉克斯饰演《华盛顿邮报》总编辑本·布拉德利,梅姨饰演刊行人凯瑟琳·格雷厄姆。凯瑟琳·格雷厄姆与本·巴格迪坎要赶在《纽约时报》之前揭穿一件历经四届美国总统任期、长达三十余年的庞大袒护事务。这两小我必须消弭他们之间的差别,各自拿他们的奇迹、甚至人身自在冒险,让久长以来埋藏在黑暗深处的真相重见光亮。

◎获奖情况

  第90届奥斯卡金像奖  (2018)
  最好影片(提名) 史蒂文·斯皮尔伯格 / 克里斯蒂·麦克斯科·克里格 / 艾米·帕斯卡尔
  最好女配角(提名) 梅丽尔·斯特里普

  第75届金球奖  (2018)
  电影类 最好剧情片(提名)
  电影类 最好导演(提名) 史蒂文·斯皮尔伯格
  电影类 剧情片最好男配角(提名) 汤姆·汉克斯
  电影类 剧情片最好女配角(提名) 梅丽尔·斯特里普
  电影类 最好编剧(提名) 乔希·辛格 / 丽兹·汉娜
  电影类 最好原创配乐(提名) 约翰·威廉姆斯

  第29届美国制片野生会奖  (2018)
  最好电影制片人奖(提名)

  第68届美国剪辑工会奖  (2018)
  剧情片最好剪辑(提名) 迈克尔·卡恩 / 莎拉·布罗沙

  第22届美国艺术指导工会奖  (2018)
  电影奖 最好历史电影艺术指导(提名)

  第89届美国国家批评协会奖  (2017)
  最好影片 史蒂文·斯皮尔伯格
  最好男配角 汤姆·汉克斯
  最好女配角 梅丽尔·斯特里普

  第23届美国批评家挑选电影奖  (2018)
  最好影片(提名)
  最好导演(提名) 史蒂文·斯皮尔伯格
  最好男配角(提名) 汤姆·汉克斯
  最好女配角(提名) 梅丽尔·斯特里普
  最好群戏(提名)
  最好原创剧本(提名) 丽兹·汉娜
  最好剪辑(提名)
  最好配乐(提名)

  第18届美国电影学会奖  (2017)
  年度佳片

  第52届美国国家影评人协会奖  (2018)
  最好男配角(提名) 迈克尔·斯图巴

  第16届华盛顿影评人协会奖  (2017)
  华盛顿特区最好写照

  第4届豆瓣电影年度榜单  (2017)
  2017-2018北美颁奖季热门佳片(提名)


  1. Video
  2. ID                                       : 1
  3. Format                                   : AVC
  4. Format/Info                              : Advanced Video Codec
  5. Format profile                           : [email protected]
  6. Format settings                          : CABAC / 4 Ref Frames
  7. Format settings, CABAC                   : Yes
  8. Format settings, ReFrames                : 4 frames
  9. Codec ID                                 : V_MPEG4/ISO/AVC
  10. Duration                                 : 1 h 55 min
  11. Bit rate mode                            : Variable
  12. Bit rate                                 : 30.5 Mb/s
  13. Maximum bit rate                         : 39.0 Mb/s
  14. Width                                    : 1 920 pixels
  15. Height                                   : 1 080 pixels
  16. Display aspect ratio                     : 16:9
  17. Frame rate mode                          : Constant
  18. Frame rate                               : 23.976 (24000/1001) FPS
  19. Color space                              : YUV
  20. Chroma subsampling                       : 4:2:0
  21. Bit depth                                : 8 bits
  22. Scan type                                : Progressive
  23. Bits/(Pixel*Frame)                       : 0.614
  24. Stream size                              : 24.7GB (80%)
  25. Title                                    : The.Post.2017.1080p.BluRay.REMUX.AVC.DTS-HD.MA.7.1-FGT
  26. Language                                 : English
  27. Default                                  : No
  28. Forced                                   : No

  29. Audio #1
  30. ID                                       : 2
  31. Format                                   : DTS
  32. Format/Info                              : Digital Theater Systems
  33. Format profile                           : MA / ES Matrix / Core
  34. Codec ID                                 : A_DTS
  35. Duration                                 : 1 h 55 min
  36. Bit rate mode                            : Variable / Constant / Constant
  37. Bit rate                                 : 4 551 kb/s / 1 509 kb/s / 1 509 kb/s
  38. Channel(s)                               : 8 channels / 7 channels / 6 channels
  39. Channel positions                        : Front: L C R, Side: L R, Back: L R, LFE / Front: L C R, Side: L R, Back: C, LFE / Front: L C R, Side: L R, LFE
  40. Sampling rate                            : 48.0 kHz
  41. Frame rate                               : 93.750 FPS (512 SPF)
  42. Bit depth                                : 24 bits
  43. Compression mode                         : Lossless / Lossy / Lossy
  44. Stream size                              : 3.69GB (12%)
  45. Title                                    : The.Post.2017.1080p.BluRay.REMUX.AVC.DTS-HD.MA.7.1-FGT
  46. Language                                 : English
  47. Default                                  : Yes
  48. Forced                                   : No

  49. Audio #2
  50. ID                                       : 3
  51. Format                                   : DTS
  52. Format/Info                              : Digital Theater Systems
  53. Format profile                           : ES Matrix / Core
  54. Codec ID                                 : A_DTS
  55. Duration                                 : 1 h 55 min
  56. Bit rate mode                            : Constant
  57. Bit rate                                 : 1 509 kb/s
  58. Channel(s)                               : 7 channels / 6 channels
  59. Channel positions                        : Front: L C R, Side: L R, Back: C, LFE / Front: L C R, Side: L R, LFE
  60. Sampling rate                            : 48.0 kHz
  61. Frame rate                               : 93.750 FPS (512 SPF)
  62. Bit depth                                : 24 bits
  63. Compression mode                         : Lossy
  64. Stream size                              : 1.22GB (4%)
  65. Title                                    : The.Post.2017.1080p.BluRay.REMUX.AVC.DTS-HD.MA.7.1-FGT
  66. Language                                 : English
  67. Default                                  : No
  68. Forced                                   : No

  69. Audio #3
  70. ID                                       : 4
  71. Format                                   : AC-3
  72. Format/Info                              : Audio Coding 3
  73. Codec ID                                 : A_AC3
  74. Duration                                 : 1 h 55 min
  75. Bit rate mode                            : Constant
  76. Bit rate                                 : 448 kb/s
  77. Channel(s)                               : 6 channels
  78. Channel positions                        : Front: L C R, Side: L R, LFE
  79. Sampling rate                            : 48.0 kHz
  80. Frame rate                               : 31.250 FPS (1536 SPF)
  81. Bit depth                                : 16 bits
  82. Compression mode                         : Lossy
  83. Stream size                              : 372 MiB (1%)
  84. Title                                    : The.Post.2017.1080p.BluRay.REMUX.AVC.DTS-HD.MA.7.1-FGT
  85. Language                                 : English
  86. Service kind                             : Complete Main
  87. Default                                  : No
  88. Forced                                   : No

  89. Audio #4
  90. ID                                       : 5
  91. Format                                   : AC-3
  92. Format/Info                              : Audio Coding 3
  93. Codec ID                                 : A_AC3
  94. Duration                                 : 1 h 55 min
  95. Bit rate mode                            : Constant
  96. Bit rate                                 : 448 kb/s
  97. Channel(s)                               : 6 channels
  98. Channel positions                        : Front: L C R, Side: L R, LFE
  99. Sampling rate                            : 48.0 kHz
  100. Frame rate                               : 31.250 FPS (1536 SPF)
  101. Bit depth                                : 16 bits
  102. Compression mode                         : Lossy
  103. Stream size                              : 372 MiB (1%)
  104. Title                                    : The.Post.2017.1080p.BluRay.REMUX.AVC.DTS-HD.MA.7.1-FGT
  105. Language                                 : Spanish
  106. Service kind                             : Complete Main
  107. Default                                  : No
  108. Forced                                   : No

  109. Audio #5
  110. ID                                       : 6
  111. Format                                   : AC-3
  112. Format/Info                              : Audio Coding 3
  113. Codec ID                                 : A_AC3
  114. Duration                                 : 1 h 55 min
  115. Bit rate mode                            : Constant
  116. Bit rate                                 : 448 kb/s
  117. Channel(s)                               : 6 channels
  118. Channel positions                        : Front: L C R, Side: L R, LFE
  119. Sampling rate                            : 48.0 kHz
  120. Frame rate                               : 31.250 FPS (1536 SPF)
  121. Bit depth                                : 16 bits
  122. Compression mode                         : Lossy
  123. Stream size                              : 372 MiB (1%)
  124. Title                                    : The.Post.2017.1080p.BluRay.REMUX.AVC.DTS-HD.MA.7.1-FGT
  125. Language                                 : French
  126. Service kind                             : Complete Main
  127. Default                                  : No
  128. Forced                                   : No

  129. Text #1
  130. ID                                       : 7
  131. Format                                   : PGS
  132. Muxing mode                              : zlib
  133. Codec ID                                 : S_HDMV/PGS
  134. Codec ID/Info                            : Picture based subtitle format used on BDs/HD-DVDs
  135. Duration                                 : 1 h 48 min
  136. Bit rate                                 : 60.5 kb/s
  137. Count of elements                        : 4569
  138. Stream size                              : 47.0 MiB (0%)
  139. Title                                    : English-PGS
  140. Language                                 : English
  141. Default                                  : Yes
  142. Forced                                   : No

  143. Text #2
  144. ID                                       : 8
  145. Format                                   : PGS
  146. Muxing mode                              : zlib
  147. Codec ID                                 : S_HDMV/PGS
  148. Codec ID/Info                            : Picture based subtitle format used on BDs/HD-DVDs
  149. Duration                                 : 1 h 54 min
  150. Bit rate                                 : 47.0 kb/s
  151. Count of elements                        : 3606
  152. Stream size                              : 38.6 MiB (0%)
  153. Title                                    : Spanish-PGS
  154. Language                                 : Spanish
  155. Default                                  : No
  156. Forced                                   : No

  157. Text #3
  158. ID                                       : 9
  159. Format                                   : PGS
  160. Muxing mode                              : zlib
  161. Codec ID                                 : S_HDMV/PGS
  162. Codec ID/Info                            : Picture based subtitle format used on BDs/HD-DVDs
  163. Duration                                 : 1 h 54 min
  164. Bit rate                                 : 41.1 kb/s
  165. Count of elements                        : 3620
  166. Stream size                              : 33.8 MiB (0%)
  167. Title                                    : French-PGS
  168. Language                                 : French
  169. Default                                  : No
  170. Forced                                   : No

  171. Text #4
  172. ID                                       : 10
  173. Format                                   : PGS
  174. Muxing mode                              : zlib
  175. Codec ID                                 : S_HDMV/PGS
  176. Codec ID/Info                            : Picture based subtitle format used on BDs/HD-DVDs
  177. Duration                                 : 1 h 54 min
  178. Bit rate                                 : 61 b/s
  179. Count of elements                        : 6
  180. Stream size                              : 52.0 KiB (0%)
  181. Title                                    : French-FORCED-PGS
  182. Language                                 : French
  183. Default                                  : No
  184. Forced                                   : No

  185. Menu
  186. 00:00:00.000                             : en:Chapter 01
  187. 00:05:01.926                             : en:Chapter 02
  188. 00:10:08.733                             : en:Chapter 03
  189. 00:12:32.793                             : en:Chapter 04
  190. 00:16:22.398                             : en:Chapter 05
  191. 00:19:19.616                             : en:Chapter 06
  192. 00:24:53.325                             : en:Chapter 07
  193. 00:30:23.988                             : en:Chapter 08
  194. 00:34:51.672                             : en:Chapter 09
  195. 00:39:08.679                             : en:Chapter 10
  196. 00:43:25.811                             : en:Chapter 11
  197. 00:48:20.564                             : en:Chapter 12
  198. 00:54:38.692                             : en:Chapter 13
  199. 00:59:39.784                             : en:Chapter 14
  200. 01:03:49.116                             : en:Chapter 15
  201. 01:09:59.570                             : en:Chapter 16
  202. 01:14:04.857                             : en:Chapter 17
  203. 01:20:20.273                             : en:Chapter 18
  204. 01:24:30.732                             : en:Chapter 19
  205. 01:30:22.667                             : en:Chapter 20
  206. 01:35:23.759                             : en:Chapter 21
  207. 01:38:46.545                             : en:Chapter 22
  208. 01:43:07.723                             : en:Chapter 23
  209. 01:49:27.852                             : en:Chapter 24



复制代码
复制代码
171954xzrjffq6ruw2wf24.jpg 171954v1pddn531218xp3n.jpg 171955x1vhwp8g1zwpvgdm.jpg






回复

使用道具 举报

蓝光币
821
发表于 2018-4-21 10:29:05 | 显示全部楼层
谢谢楼主分享
回复 支持 反对

使用道具 举报

懒得打字嘛,点击右侧快捷回复 【右侧内容,后台自定义】
您需要登录后才可以回帖 登录 | 立即加入

本版积分规则

Archiver|小黑屋| 蓝光电影网 |网站地图

Copyright © 2021 Comsenz Inc. Powered by 蓝光电影网

蓝光电影网

本站内容由用户自主分享和转载自互联网,转载目的在于传递更多信息,并不代表本网赞同其观点和对其真实性负责。

如有侵权、违反国家法律政策行为,请联系我们,我们会第一时间及时清除和处理!

举报反馈邮箱:[email protected]

快速回复 返回顶部 返回列表