找回密码

蓝光电影网

查看: 1057|回复: 1

[恐怖] 弗兰肯斯坦的诅咒/弗兰肯斯坦的色情冒险 The.Erotic.Rites.of.Frankenstein.1973.UNCENSORED.1080p.BluRay.x264-GHOULS 5.47GB

[复制链接]
蓝光币
623
发表于 2018-4-10 10:00:58 | 显示全部楼层 |阅读模式
015240tfqffjv7ggkfezf3.jpg
◎译  名 弗兰肯斯坦的诅咒/弗兰肯斯坦的色情冒险
◎片  名 La maldición de Frankenstein
◎年  代 1972
◎产  地 西班牙/法国
◎类  别 可骇
◎语  言 法语
◎上映日期 1972
◎IMDb评分  5.3/10 from 429 users
◎IMDb链接  http://www.imdb.com/title/tt0068559/
◎豆瓣评分 /10 from 0 users
◎豆瓣链接 https://movie.douban.com/subject/2139867/
◎片  长 94 分钟/Netherlands: 71 分钟(25 fps) (as "The Curse of Frankenstein")/Spain: 81 分钟
◎导  演 赫苏斯·佛朗哥 Jesus Franco
◎主  演 丹尼斯·普莱斯 Dennis Price
      霍华德·沃侬 Howard Vernon
      Anne Libert

◎简  介

  None


  1. Video
  2. ID                                       : 1
  3. Format                                   : AVC
  4. Format/Info                              : Advanced Video Codec
  5. Format profile                           : [email protected]
  6. Format settings                          : CABAC / 5 Ref Frames
  7. Format settings, CABAC                   : Yes
  8. Format settings, RefFrames               : 5 frames
  9. Codec ID                                 : V_MPEG4/ISO/AVC
  10. Duration                                 : 1 h 13 min
  11. Bit rate                                 : 9 952 kb/s
  12. Width                                    : 1 920 pixels
  13. Height                                   : 792 pixels
  14. Display aspect ratio                     : 2.40:1
  15. Frame rate mode                          : Constant
  16. Frame rate                               : 24.000 FPS
  17. Color space                              : YUV
  18. Chroma subsampling                       : 4:2:0
  19. Bit depth                                : 8 bits
  20. Scan type                                : Progressive
  21. Bits/(Pixel*Frame)                       : 0.273
  22. Stream size                              : 5.14GB (94%)
  23. Writing library                          : x264 core 155 r2901 7d0ff22
  24. Encoding settings                        : cabac=1 / ref=5 / deblock=1:-3:-3 / analyse=0x3:0x133 / me=umh / subme=8 / psy=1 / psy_rd=1.00:0.00 / mixed_ref=1 / me_range=16 / chroma_me=1 / trellis=1 / 8x8dct=1 / cqm=0 / deadzone=21,11 / fast_pskip=0 / chroma_qp_offset=-2 / threads=24 / lookahead_threads=4 / sliced_threads=0 / nr=0 / decimate=1 / interlaced=0 / bluray_compat=0 / constrained_intra=0 / bframes=3 / b_pyramid=2 / b_adapt=1 / b_bias=0 / direct=3 / weightb=1 / open_gop=0 / weightp=2 / keyint=250 / keyint_min=24 / scenecut=40 / intra_refresh=0 / rc_lookahead=50 / rc=2pass / mbtree=1 / bitrate=9952 / ratetol=1.0 / qcomp=0.60 / qpmin=0 / qpmax=69 / qpstep=4 / cplxblur=20.0 / qblur=0.5 / vbv_maxrate=62500 / vbv_bufsize=78125 / nal_hrd=none / filler=0 / ip_ratio=1.40 / aq=1:1.00
  25. Default                                  : Yes
  26. Forced                                   : No

  27. Audio
  28. ID                                       : 2
  29. Format                                   : AC-3
  30. Format/Info                              : Audio Coding 3
  31. Format settings, Endianness              : Big
  32. Codec ID                                 : A_AC3
  33. Duration                                 : 1 h 13 min
  34. Bit rate mode                            : Constant
  35. Bit rate                                 : 640 kb/s
  36. Channel(s)                               : 2 channels
  37. Channel positions                        : Front: L R
  38. Sampling rate                            : 48.0 kHz
  39. Frame rate                               : 31.250 FPS (1536 SPF)
  40. Bit depth                                : 16 bits
  41. Compression mode                         : Lossy
  42. Stream size                              : 338 MiB (6%)
  43. Language                                 : French
  44. Service kind                             : Complete Main
  45. Default                                  : Yes
  46. Forced                                   : No

  47. Text
  48. ID                                       : 3
  49. Format                                   : UTF-8
  50. Codec ID                                 : S_TEXT/UTF8
  51. Codec ID/Info                            : UTF-8 Plain Text
  52. Duration                                 : 1 h 13 min
  53. Bit rate                                 : 29 b/s
  54. Count of elements                        : 505
  55. Stream size                              : 15.8 KiB (0%)
  56. Language                                 : English
  57. Default                                  : Yes
  58. Forced                                   : No

  59. Menu
  60. 00:00:00.000                             : en:00:00:00.000
  61. 00:04:50.000                             : en:00:04:50.000
  62. 00:10:51.042                             : en:00:10:51.042
  63. 00:20:58.042                             : en:00:20:58.042
  64. 00:30:36.000                             : en:00:30:36.000
  65. 00:38:47.208                             : en:00:38:47.208
  66. 00:41:41.500                             : en:00:41:41.500
  67. 00:44:53.375                             : en:00:44:53.375
  68. 00:52:55.583                             : en:00:52:55.583
  69. 01:02:39.458                             : en:01:02:39.458




复制代码
复制代码
015241e5mapmp5rl60olap.jpg







回复

使用道具 举报

懒得打字嘛,点击右侧快捷回复 【右侧内容,后台自定义】
您需要登录后才可以回帖 登录 | 立即加入

本版积分规则

Archiver|小黑屋| 蓝光电影网 |网站地图

Copyright © 2021 Comsenz Inc. Powered by 蓝光电影网

蓝光电影网

本站内容由用户自主分享和转载自互联网,转载目的在于传递更多信息,并不代表本网赞同其观点和对其真实性负责。

如有侵权、违反国家法律政策行为,请联系我们,我们会第一时间及时清除和处理!

举报反馈邮箱:[email protected]

快速回复 返回顶部 返回列表