找回密码

蓝光电影网

查看: 769|回复: 4

[剧情] 埃内斯托 Ernesto.2017.720p.BluRay.x264-WiKi 4.70GB

[复制链接]
蓝光币
623
发表于 2018-4-10 20:02:09 | 显示全部楼层 |阅读模式
162519hepa8xu0iim448k3.jpg
◎译  名 埃内斯托
◎片  名 エルネスト
◎年  代 2017
◎产  地 日本/古巴
◎类  别 剧情/列传/历史
◎语  言 日语
◎上映日期 2017-10-06(日本)
◎IMDb评分  6.0/10 from 11 users
◎IMDb链接  http://www.imdb.com/title/tt5937210/
◎豆瓣评分 /10 from 0 users
◎豆瓣链接 https://movie.douban.com/subject/26849117/
◎片  长 124分钟
◎导  演 阪本顺治 Junji Sakamoto
◎主  演 小田切让 J? Odagiri
      永山绚斗 Kento Nagayama
      Alexis Díaz de Villegas
      Juan M. Valero

◎简  介

  故事以加入古巴反动豪杰切·格瓦拉的游击军队,并被切·格瓦拉命名为“埃内斯托”的日本血缘玻利维亚人埃内斯托·弗莱迪的平生故事。作为日系玻利维亚人而诞生于1941年10月的埃内斯托·前村·弗莱迪诞生于敷裕家庭,少年期间的他看到贫富差异庞大的社会中很多贫困大家生时,经常向贫困朋友送上关心。为了人类而决议从医的他在古巴医学院留学时熟悉了切·格瓦拉,并是以改变了他的人生。随后,听闻祖国玻利维亚军事政变,埃内斯托·弗莱迪加入了切·格瓦拉的游击队,决心为百姓而奉献生命。


  1. Video
  2. ID                                       : 1
  3. Format                                   : AVC
  4. Format/Info                              : Advanced Video Codec
  5. Format profile                           : [email protected]
  6. Format settings                          : CABAC / 9 Ref Frames
  7. Format settings, CABAC                   : Yes
  8. Format settings, ReFrames                : 9 frames
  9. Codec ID                                 : V_MPEG4/ISO/AVC
  10. Duration                                 : 2 h 4 min
  11. Bit rate                                 : 4 768 kb/s
  12. Width                                    : 1 280 pixels
  13. Height                                   : 692 pixels
  14. Display aspect ratio                     : 1.85:1
  15. Frame rate mode                          : Constant
  16. Frame rate                               : 23.976 (24000/1001) FPS
  17. Color space                              : YUV
  18. Chroma subsampling                       : 4:2:0
  19. Bit depth                                : 8 bits
  20. Scan type                                : Progressive
  21. Bits/(Pixel*Frame)                       : 0.225
  22. Stream size                              : 4.14GB (88%)
  23. Writing library                          : x264 core 129 r2245+704+36 8e61944 tMod+MixAQ [[email protected]:2:0 X86_64]
  24. Encoding settings                        : cabac=1 / ref=9 / deblock=1:-3:-3 / analyse=0x3:0x133 / me=umh / subme=11 / psy=1 / fade_compensate=0.00 / psy_rd=1.05:0.10 / mixed_ref=1 / me_range=32 / chroma_me=1 / trellis=2 / 8x8dct=1 / cqm=0 / deadzone=21,11 / fast_pskip=0 / chroma_qp_offset=-3 / threads=18 / lookahead_threads=3 / sliced_threads=0 / nr=0 / decimate=0 / interlaced=0 / bluray_compat=0 / constrained_intra=0 / fgo=0 / bframes=10 / b_pyramid=2 / b_adapt=2 / b_bias=0 / direct=3 / weightb=1 / open_gop=0 / weightp=2 / keyint=250 / keyint_min=23 / scenecut=40 / intra_refresh=0 / rc=2pass / mbtree=0 / bitrate=4768 / ratetol=1.0 / qcomp=0.70 / qpmin=0 / qpmax=69 / qpstep=4 / cplxblur=20.0 / qblur=0.5 / ip_ratio=1.40 / pb_ratio=1.30 / aq=1 / aq-strength=0.85 / aq-sensitivity=10.00 / aq-ifactor=1.00 / aq-pfactor=1.00 / aq-bfactor=1.00 / aq2=0
  25. Language                                 : Japanese
  26. Default                                  : Yes
  27. Forced                                   : No

  28. Audio
  29. ID                                       : 2
  30. Format                                   : AC-3
  31. Format/Info                              : Audio Coding 3
  32. Codec ID                                 : A_AC3
  33. Duration                                 : 2 h 4 min
  34. Bit rate mode                            : Constant
  35. Bit rate                                 : 640 kb/s
  36. Channel(s)                               : 6 channels
  37. Channel positions                        : Front: L C R, Side: L R, LFE
  38. Sampling rate                            : 48.0 kHz
  39. Frame rate                               : 31.250 FPS (1536 SPF)
  40. Bit depth                                : 16 bits
  41. Compression mode                         : Lossy
  42. Stream size                              : 570 MiB (12%)
  43. Language                                 : Japanese
  44. Service kind                             : Complete Main
  45. Default                                  : Yes
  46. Forced                                   : No

  47. Text
  48. ID                                       : 3
  49. Format                                   : ASS
  50. Codec ID                                 : S_TEXT/ASS
  51. Codec ID/Info                            : Advanced Sub Station Alpha
  52. Duration                                 : 2 h 0 min
  53. Bit rate                                 : 72 b/s
  54. Count of elements                        : 1283
  55. Compression mode                         : Lossless
  56. Stream size                              : 64.5 KiB (0%)
  57. Language                                 : Chinese
  58. Default                                  : Yes
  59. Forced                                   : No

  60. Menu
  61. 00:00:00.000                             : en:00:00:00.000
  62. 00:20:38.237                             : en:00:20:38.237
  63. 00:31:17.792                             : en:00:31:17.792
  64. 00:53:35.670                             : en:00:53:35.670
  65. 01:13:30.197                             : en:01:13:30.197
  66. 01:28:42.150                             : en:01:28:42.150
  67. 01:42:25.472                             : en:01:42:25.472
  68. 01:54:24.482                             : en:01:54:24.482
  69. 02:04:24.457                             : en:02:04:24.457



复制代码
复制代码
162519kllad669c36iwc39.jpg 162519e4volci2lzs4l44i.jpg 162520lg5fm4odx39r99k9.jpg






回复

使用道具 举报

蓝光币
918
发表于 2018-4-11 10:04:05 | 显示全部楼层
感觉怪怪的,日本和古巴半毛钱的关系都没有吧
回复 支持 反对

使用道具 举报

蓝光币
1324
发表于 2018-4-18 15:44:17 | 显示全部楼层
谢谢楼主分享!
回复 支持 反对

使用道具 举报

懒得打字嘛,点击右侧快捷回复 【右侧内容,后台自定义】
您需要登录后才可以回帖 登录 | 立即加入

本版积分规则

Archiver|小黑屋| 蓝光电影网 |网站地图

Copyright © 2021 Comsenz Inc. Powered by 蓝光电影网

蓝光电影网

本站内容由用户自主分享和转载自互联网,转载目的在于传递更多信息,并不代表本网赞同其观点和对其真实性负责。

如有侵权、违反国家法律政策行为,请联系我们,我们会第一时间及时清除和处理!

举报反馈邮箱:[email protected]

快速回复 返回顶部 返回列表