找回密码

蓝光电影网

查看: 3261|回复: 4

[剧情] 亚人 真人版 Ajin.Demi-Human.2017.720p.BluRay.x264-WiKi 4.37GB

[复制链接]
蓝光币
623
发表于 2018-4-10 20:02:34 | 显示全部楼层 |阅读模式
162632lwafweowpp43w8i2.jpg
◎译  名 亚人 真人版
◎片  名 亜人
◎年  代 2017
◎产  地 日本
◎类  别 剧情/行动/奇异
◎语  言 日语
◎上映日期 2017-09-30(日本)
◎IMDb评分  7.2/10 from 263 users
◎IMDb链接  http://www.imdb.com/title/tt6215712/
◎豆瓣评分 7.2/10 from 869 users
◎豆瓣链接 https://movie.douban.com/subject/26864096/
◎片  长 109分钟
◎导  演 本广克行 Katsuyuki Motohiro
◎主  演 佐藤健 Takeru Sat?
      绫野刚 G? Ayano
      山田裕贵 Y?ki Yamada
      城田优 Yuu Shirota
      千叶雄大 Yudai Chiba
      滨边美波 Minami Hamabe
      玉山铁二 Tetsuji Tamayama
      川荣李奈 Rina Kawaei

◎简  介

  「やはり、この映画がコケたことで、佐藤健といえばマンガモノ、しかもアクションモノじゃないかということで、佐藤さんありきで『亜人』の映画化が決まったそうです。マンガそのものはまだ続いているのですが、原作に沿ったオリジナルストーリーになる予定です」(芸能事務所関係者)
  マンガ『亜人』は2015年11月からは劇場アニメ化が、今年の1月からはテレビアニメ化もされている人気作品だ。
  「アクションシーンも多いですし、CGを多用する作品になるでしょうね。撮影は11月から12月に行われるそうですが、アクションシーンは佐藤さんたっての希望で、スタントをほとんど使わない予定だそうです。まだ佐藤さん之外のキャストは、ほとんど決まってないそうですよ」(テレビ局関係者)
  公開は来年の夏になるというが、この作品が佐藤と本広克行監督にとって正念場となりそうだ。


  1. Video
  2. ID                                       : 1
  3. Format                                   : AVC
  4. Format/Info                              : Advanced Video Codec
  5. Format profile                           : [email protected]
  6. Format settings                          : CABAC / 12 Ref Frames
  7. Format settings, CABAC                   : Yes
  8. Format settings, ReFrames                : 12 frames
  9. Codec ID                                 : V_MPEG4/ISO/AVC
  10. Duration                                 : 1 h 48 min
  11. Bit rate                                 : 5 130 kb/s
  12. Width                                    : 1 280 pixels
  13. Height                                   : 536 pixels
  14. Display aspect ratio                     : 2.40:1
  15. Frame rate mode                          : Constant
  16. Frame rate                               : 23.976 (24000/1001) FPS
  17. Color space                              : YUV
  18. Chroma subsampling                       : 4:2:0
  19. Bit depth                                : 8 bits
  20. Scan type                                : Progressive
  21. Bits/(Pixel*Frame)                       : 0.312
  22. Stream size                              : 3.88GB (89%)
  23. Writing library                          : x264 core 129 r2245+704+36 8e61944 tMod+MixAQ [[email protected]:2:0 X86_64]
  24. Encoding settings                        : cabac=1 / ref=12 / deblock=1:-3:-3 / analyse=0x3:0x133 / me=umh / subme=11 / psy=1 / fade_compensate=0.00 / psy_rd=1.05:0.10 / mixed_ref=1 / me_range=32 / chroma_me=1 / trellis=2 / 8x8dct=1 / cqm=0 / deadzone=21,11 / fast_pskip=0 / chroma_qp_offset=-3 / threads=18 / lookahead_threads=3 / sliced_threads=0 / nr=0 / decimate=0 / interlaced=0 / bluray_compat=0 / constrained_intra=0 / fgo=0 / bframes=10 / b_pyramid=2 / b_adapt=2 / b_bias=0 / direct=3 / weightb=1 / open_gop=0 / weightp=2 / keyint=250 / keyint_min=23 / scenecut=40 / intra_refresh=0 / rc=2pass / mbtree=0 / bitrate=5130 / ratetol=1.0 / qcomp=0.70 / qpmin=0 / qpmax=69 / qpstep=4 / cplxblur=20.0 / qblur=0.5 / ip_ratio=1.40 / pb_ratio=1.30 / aq=1 / aq-strength=0.85 / aq-sensitivity=10.00 / aq-ifactor=1.00 / aq-pfactor=1.00 / aq-bfactor=1.00 / aq2=0
  25. Language                                 : Japanese
  26. Default                                  : Yes
  27. Forced                                   : No

  28. Audio
  29. ID                                       : 2
  30. Format                                   : AC-3
  31. Format/Info                              : Audio Coding 3
  32. Codec ID                                 : A_AC3
  33. Duration                                 : 1 h 48 min
  34. Bit rate mode                            : Constant
  35. Bit rate                                 : 640 kb/s
  36. Channel(s)                               : 6 channels
  37. Channel positions                        : Front: L C R, Side: L R, LFE
  38. Sampling rate                            : 48.0 kHz
  39. Frame rate                               : 31.250 FPS (1536 SPF)
  40. Bit depth                                : 16 bits
  41. Compression mode                         : Lossy
  42. Stream size                              : 496 MiB (11%)
  43. Language                                 : Japanese
  44. Service kind                             : Complete Main
  45. Default                                  : Yes
  46. Forced                                   : No

  47. Text
  48. ID                                       : 3
  49. Format                                   : ASS
  50. Codec ID                                 : S_TEXT/ASS
  51. Codec ID/Info                            : Advanced Sub Station Alpha
  52. Duration                                 : 1 h 43 min
  53. Bit rate                                 : 74 b/s
  54. Count of elements                        : 1129
  55. Compression mode                         : Lossless
  56. Stream size                              : 56.7 KiB (0%)
  57. Language                                 : Chinese
  58. Default                                  : Yes
  59. Forced                                   : No

  60. Menu
  61. 00:00:00.000                             : en:00:00:00.000
  62. 00:08:26.088                             : en:00:08:26.088
  63. 00:20:48.705                             : en:00:20:48.705
  64. 00:38:08.452                             : en:00:38:08.452
  65. 00:56:15.288                             : en:00:56:15.288
  66. 01:09:23.367                             : en:01:09:23.367
  67. 01:25:15.902                             : en:01:25:15.902
  68. 01:42:12.000                             : en:01:42:12.000
  69. 01:48:14.487                             : en:01:48:14.487



复制代码
复制代码
162633xk5ymzl0jrmkkh0k.jpg 162633h2z7wc6vwhqcqr97.jpg 162633jaouuzusdeq6qi0u.jpg






回复

使用道具 举报

蓝光币
918
发表于 2018-4-11 10:02:56 | 显示全部楼层
多谢楼主分享
回复 支持 反对

使用道具 举报

蓝光币
1324
发表于 2018-4-18 15:55:40 | 显示全部楼层
谢谢楼主分享!
回复 支持 反对

使用道具 举报

懒得打字嘛,点击右侧快捷回复 【右侧内容,后台自定义】
您需要登录后才可以回帖 登录 | 立即加入

本版积分规则

Archiver|小黑屋| 蓝光电影网 |网站地图

Copyright © 2021 Comsenz Inc. Powered by 蓝光电影网

蓝光电影网

本站内容由用户自主分享和转载自互联网,转载目的在于传递更多信息,并不代表本网赞同其观点和对其真实性负责。

如有侵权、违反国家法律政策行为,请联系我们,我们会第一时间及时清除和处理!

举报反馈邮箱:[email protected]

快速回复 返回顶部 返回列表