找回密码

蓝光电影网

查看: 3753|回复: 6

底特律/底特律暴乱 Detroit.2017.2160p.BluRay.REMUX.HEVC.DTS-HD.MA.5.1-FGT 74.63GB

[复制链接]
蓝光币
623
发表于 2018-4-10 20:15:06 | 显示全部楼层 |阅读模式
173743omyjonofp47lj7a0.jpg
◎译  名 底特律/底特律暴乱
◎片  名 Detroit
◎年  代 2017
◎产  地 美国
◎类  别 剧情/历史/犯罪
◎语  言 英语
◎上映日期 2017-07-25(底特律首映)/2017-08-04(美国)
◎IMDb评分  7.4/10 from 29,085 users
◎IMDb链接  http://www.imdb.com/title/tt5390504/
◎豆瓣评分 7.9/10 from 9,612 users
◎豆瓣链接 https://movie.douban.com/subject/26718836/
◎片  长 143分钟
◎导  演 凯瑟琳·毕格罗 Kathryn Bigelow
◎主  演 约翰·博耶加 John Boyega
      威尔·保尔特 Will Poulter
      阿尔吉·史姑娘 Algee Smith
      雅各布·拉提摩尔 Jacob Latimore
      杰森·米切尔 Jason Mitchell
      汉娜·穆雷 Hannah Murray
      杰克·莱诺 Jack Reynor
      凯特琳·德弗 Kaitlyn Dever
      本·奥图尔 Ben O'Toole
      约翰·卡拉辛斯基 John Krasinski
      安东尼·麦凯 Anthony Mackie
      内森·戴维斯 Nathan Davis Jr.
      佩顿·亚历克斯·史姑娘 Peyton 'Alex' Smith
      马尔科姆·大卫·凯利 Malcolm David Kelley
      约瑟夫·戴维-琼斯 Joseph David-Jones
      拉兹·阿隆索 Laz Alonso
      伊弗雷姆·赛克斯 Ephraim Sykes
      莱昂·托马斯三世 Leon Thomas III
      格本加·阿金纳格贝 Gbenga Akinnagbe
      克里斯·乔克 Chris Chalk
      杰瑞米·斯特朗 Jeremy Strong
      萨米拉·威利 Samira Wiley
      泰勒·詹姆斯·威廉姆 Tyler James Williams

◎简  介

  《拆弹军队》(The Hurt Locker)和《刺杀本拉登》(Zero Dark Thirty)导演凯瑟琳·毕格罗(Kathryn Bigelow)行将和《拆弹军队》编剧马克·鲍尔(Mark Boal)再度合作,拍摄一部报告1967年末特律黑人骚乱的电影。
  该片今朝暂无片名,计划三月起头选角,今年炎天开机拍摄。
  1967年的底特律黑人骚乱是美国历史上破坏性最大的种族骚乱之一,原由是差人7月23日清晨进入黑人区一家酒馆拘系黑人。此次法律行动激发黑人不满,他们闻讯而来向差人抛掷石块和砖头。
  后来警方支援到来,强行遣散黑人,但适得其反,黑人越聚越多终极激发涉及全城的大范围纷扰。这场骚乱延续了五天,形成43人灭亡,很多修建被毁、很多人受伤。骚乱还舒展到伊利诺伊、北卡罗来纳、田纳西、马里兰州。
  这部电影计划在这场骚乱50周年,也就是2017年上映。

◎获奖情况

  第22届金卫星奖  (2018)
  电影部分 最好原创歌曲(提名)

  第4届豆瓣电影年度榜单  (2017)
  12月最受关注电影(提名)


  1. Video
  2. ID                                       : 1
  3. Format                                   : HEVC
  4. Format/Info                              : High Efficiency Video Coding
  5. Format profile                           : Main [email protected]@High
  6. Codec ID                                 : V_MPEGH/ISO/HEVC
  7. Duration                                 : 2 h 24 min
  8. Bit rate                                 : 70.0 Mb/s
  9. Width                                    : 3 840 pixels
  10. Height                                   : 2 160 pixels
  11. Display aspect ratio                     : 16:9
  12. Frame rate mode                          : Constant
  13. Frame rate                               : 23.976 (24000/1001) FPS
  14. Color space                              : YUV
  15. Chroma subsampling                       : 4:2:0 (Type 2)
  16. Bit depth                                : 10 bits
  17. Bits/(Pixel*Frame)                       : 0.352
  18. Stream size                              : 70.5GB (94%)
  19. Title                                    : Detroit.2017.2160p.BluRay.REMUX.HEVC.DTS-HD.MA.5.1-FGT
  20. Writing library                          : ATEME Titan File 3.8.12 (4.8.12.0)
  21. Default                                  : Yes
  22. Forced                                   : No
  23. Color range                              : Limited
  24. Color primaries                          : BT.2020
  25. Transfer characteristics                 : PQ
  26. Matrix coefficients                      : BT.2020 non-constant
  27. Mastering display color primaries        : Display P3
  28. Mastering display luminance              : min: 0.0050 cd/m2, max: 1000 cd/m2
  29. Maximum Content Light Level              : 1000 cd/m2
  30. Maximum Frame-Average Light Level        : 300 cd/m2

  31. Audio #1
  32. ID                                       : 2
  33. Format                                   : DTS
  34. Format/Info                              : Digital Theater Systems
  35. Format profile                           : MA / Core
  36. Codec ID                                 : A_DTS
  37. Duration                                 : 2 h 24 min
  38. Bit rate mode                            : Variable / Constant
  39. Bit rate                                 : 1 920 kb/s / 1 509 kb/s
  40. Channel(s)                               : 6 channels
  41. Channel positions                        : Front: L C R, Side: L R, LFE
  42. Sampling rate                            : 48.0 kHz
  43. Frame rate                               : 93.750 FPS (512 SPF)
  44. Bit depth                                : 16 bits
  45. Compression mode                         : Lossless / Lossy
  46. Stream size                              : 1.92GB (3%)
  47. Title                                    : Detroit.2017.2160p.BluRay.REMUX.HEVC.DTS-HD.MA.5.1-FGT
  48. Language                                 : English
  49. Default                                  : Yes
  50. Forced                                   : No

  51. Audio #2
  52. ID                                       : 3
  53. Format                                   : AC-3
  54. Format/Info                              : Audio Coding 3
  55. Codec ID                                 : A_AC3
  56. Duration                                 : 2 h 24 min
  57. Bit rate mode                            : Constant
  58. Bit rate                                 : 224 kb/s
  59. Channel(s)                               : 2 channels
  60. Channel positions                        : Front: L R
  61. Sampling rate                            : 48.0 kHz
  62. Frame rate                               : 31.250 FPS (1536 SPF)
  63. Bit depth                                : 16 bits
  64. Compression mode                         : Lossy
  65. Stream size                              : 231 MiB (0%)
  66. Title                                    : Detroit.2017.2160p.BluRay.REMUX.HEVC.DTS-HD.MA.5.1-FGT
  67. Language                                 : German
  68. Service kind                             : Complete Main
  69. Default                                  : No
  70. Forced                                   : No

  71. Audio #3
  72. ID                                       : 4
  73. Format                                   : DTS
  74. Format/Info                              : Digital Theater Systems
  75. Format profile                           : MA / Core
  76. Codec ID                                 : A_DTS
  77. Duration                                 : 2 h 24 min
  78. Bit rate mode                            : Variable / Constant
  79. Bit rate                                 : 1 920 kb/s / 1 509 kb/s
  80. Channel(s)                               : 6 channels
  81. Channel positions                        : Front: L C R, Side: L R, LFE
  82. Sampling rate                            : 48.0 kHz
  83. Frame rate                               : 93.750 FPS (512 SPF)
  84. Bit depth                                : 16 bits
  85. Compression mode                         : Lossless / Lossy
  86. Stream size                              : 1.95GB (3%)
  87. Title                                    : Detroit.2017.2160p.BluRay.REMUX.HEVC.DTS-HD.MA.5.1-FGT
  88. Language                                 : German
  89. Default                                  : No
  90. Forced                                   : No

  91. Text #1
  92. ID                                       : 5
  93. Format                                   : PGS
  94. Muxing mode                              : zlib
  95. Codec ID                                 : S_HDMV/PGS
  96. Codec ID/Info                            : Picture based subtitle format used on BDs/HD-DVDs
  97. Duration                                 : 2 h 14 min
  98. Bit rate                                 : 1 233 b/s
  99. Count of elements                        : 92
  100. Stream size                              : 1.19 MiB (0%)
  101. Title                                    : English-PGS
  102. Language                                 : English
  103. Default                                  : Yes
  104. Forced                                   : No

  105. Text #2
  106. ID                                       : 6
  107. Format                                   : PGS
  108. Muxing mode                              : zlib
  109. Codec ID                                 : S_HDMV/PGS
  110. Codec ID/Info                            : Picture based subtitle format used on BDs/HD-DVDs
  111. Duration                                 : 2 h 22 min
  112. Bit rate                                 : 34.1 kb/s
  113. Count of elements                        : 3286
  114. Stream size                              : 34.7 MiB (0%)
  115. Title                                    : German-PGS
  116. Language                                 : German
  117. Default                                  : No
  118. Forced                                   : No

  119. Text #3
  120. ID                                       : 7
  121. Format                                   : PGS
  122. Muxing mode                              : zlib
  123. Codec ID                                 : S_HDMV/PGS
  124. Codec ID/Info                            : Picture based subtitle format used on BDs/HD-DVDs
  125. Duration                                 : 2 h 20 min
  126. Bit rate                                 : 31.4 kb/s
  127. Count of elements                        : 3182
  128. Stream size                              : 31.7 MiB (0%)
  129. Title                                    : German-PGS
  130. Language                                 : German
  131. Default                                  : No
  132. Forced                                   : No

  133. Text #4
  134. ID                                       : 8
  135. Format                                   : PGS
  136. Muxing mode                              : zlib
  137. Codec ID                                 : S_HDMV/PGS
  138. Codec ID/Info                            : Picture based subtitle format used on BDs/HD-DVDs
  139. Duration                                 : 2 h 11 min
  140. Bit rate                                 : 2 085 b/s
  141. Count of elements                        : 156
  142. Stream size                              : 1.96 MiB (0%)
  143. Title                                    : German-FORCED-PGS
  144. Language                                 : German
  145. Default                                  : No
  146. Forced                                   : No

  147. Menu
  148. 00:00:00.000                             : en:Chapter 1
  149. 00:04:41.281                             : en:Chapter 2
  150. 00:09:47.128                             : en:Chapter 3
  151. 00:15:42.191                             : en:Chapter 4
  152. 00:26:36.928                             : en:Chapter 5
  153. 00:33:00.186                             : en:Chapter 6
  154. 00:36:44.660                             : en:Chapter 7
  155. 00:41:40.331                             : en:Chapter 8
  156. 00:50:33.530                             : en:Chapter 9
  157. 00:56:02.650                             : en:Chapter 10
  158. 00:59:34.821                             : en:Chapter 11
  159. 01:06:45.501                             : en:Chapter 12
  160. 01:11:20.734                             : en:Chapter 13
  161. 01:14:54.948                             : en:Chapter 14
  162. 01:25:41.386                             : en:Chapter 15
  163. 01:29:25.151                             : en:Chapter 16
  164. 01:33:35.901                             : en:Chapter 17
  165. 01:40:16.010                             : en:Chapter 18
  166. 01:49:31.731                             : en:Chapter 19
  167. 01:52:49.554                             : en:Chapter 20
  168. 01:59:54.103                             : en:Chapter 21
  169. 02:05:24.350                             : en:Chapter 22
  170. 02:10:51.802                             : en:Chapter 23
  171. 02:15:31.665                             : en:Chapter 24



复制代码
复制代码
173744omnl07ujvq65kuhn.jpg 173744wjr7ao01n1j7oj1o.jpg 173744pn9ynyh85qx9l88z.jpg







回复

使用道具 举报

蓝光币
821
发表于 2018-4-10 22:06:49 | 显示全部楼层
强烈支持楼主ing……
回复 支持 反对

使用道具 举报

蓝光币
3066
发表于 2018-4-12 01:45:24 | 显示全部楼层
真是难得给力的帖子啊。
回复 支持 反对

使用道具 举报

蓝光币
135
发表于 2018-4-12 16:03:34 | 显示全部楼层
感谢楼主分享
回复 支持 反对

使用道具 举报

蓝光币
821
发表于 2018-4-12 18:22:48 | 显示全部楼层
强烈支持楼主ing……
回复 支持 反对

使用道具 举报

蓝光币
385
发表于 2018-4-12 20:22:48 | 显示全部楼层
感谢分享了。。
回复 支持 反对

使用道具 举报

蓝光币
821
发表于 2018-5-4 18:46:48 | 显示全部楼层
强烈支持楼主ing……
回复 支持 反对

使用道具 举报

懒得打字嘛,点击右侧快捷回复 【右侧内容,后台自定义】
您需要登录后才可以回帖 登录 | 立即加入

本版积分规则

Archiver|小黑屋| 蓝光电影网 |网站地图

Copyright © 2021 Comsenz Inc. Powered by 蓝光电影网

蓝光电影网

本站内容由用户自主分享和转载自互联网,转载目的在于传递更多信息,并不代表本网赞同其观点和对其真实性负责。

如有侵权、违反国家法律政策行为,请联系我们,我们会第一时间及时清除和处理!

举报反馈邮箱:[email protected]

快速回复 返回顶部 返回列表