找回密码

蓝光电影网

查看: 1772|回复: 4

[剧情] 你从未在此/失控救援 You.Were.Never.Really.Here.2017.1080p.BluRay.REMUX.AVC.DTS-HD.MA.5.1-FGT 18.54GB

[复制链接]
蓝光币
623
发表于 2018-4-10 20:16:00 | 显示全部楼层 |阅读模式
173818xww59wh50p57hwhw.jpg
◎译  名 你从未在此/失控救济/独行煞星/你从未真正停驻/身不在场
◎片  名 You Were Never Really Here
◎年  代 2017
◎产  地 英国/法国/美国
◎类  别 剧情/悬疑/惊悚
◎语  言 英语
◎上映日期 2017-05-27(戛纳电影节)/2018-03-09(英国)
◎IMDb评分  7.3/10 from 10,356 users
◎IMDb链接  http://www.imdb.com/title/tt5742374/
◎豆瓣评分 7.0/10 from 1,433 users
◎豆瓣链接 https://movie.douban.com/subject/26791455/
◎片  长 90分钟
◎导  演 琳恩·拉姆塞 Lynne Ramsay
◎主  演 杰昆·菲尼克斯 Joaquin Phoenix
      叶卡特琳娜·萨姆索诺夫 Ekaterina Samsonov
      亚历桑德罗·尼沃拉 Alessandro Nivola
      亚历克斯·马内塔 Alex Manette
      约翰·道曼 John Doman
      朱迪思·罗伯茨 Judith Roberts
      麦迪逊·阿诺德 Madison Arnold

◎简  介

  染血斧头、熄灭的女童照片、自封于胶袋一呼一吸的人头,缓慢腾跃的混乱影象,先声夺报酬沉郁躁动气概定调。亚祖(杰昆·菲尼克斯 饰)从退役甲士变身合约杀手,受雇为参议员从绑匪手中救回被卖当娼的爱女,不惜一切以暴易暴,杀出重围救人自救。林恩·拉姆塞继《凯文怎样了》(2011)后再带来暴力惊慄的激烈冲击,如同从马丁·斯科塞斯《出租车司机》(1976)的倒后镜,近间隔注视驾驶座上杰昆·菲尼克斯的满脸于思,慢慢揭开沉默背后压制的童年创伤,与纽约陌头的败北沉溺。本片获第70届戛纳最好男配角及最好编剧奖。

◎获奖情况

  第70届戛纳电影节  (2017)
  主比赛单元 金棕榈奖(提名) 琳恩·拉姆塞
  主比赛单元 最好编剧 琳恩·拉姆塞
  主比赛单元 最好男演员 杰昆·菲尼克斯


  1. Video
  2. ID                                       : 1
  3. Format                                   : AVC
  4. Format/Info                              : Advanced Video Codec
  5. Format profile                           : [email protected]
  6. Format settings                          : CABAC / 4 Ref Frames
  7. Format settings, CABAC                   : Yes
  8. Format settings, ReFrames                : 4 frames
  9. Codec ID                                 : V_MPEG4/ISO/AVC
  10. Duration                                 : 1 h 29 min
  11. Bit rate mode                            : Variable
  12. Bit rate                                 : 24.8 Mb/s
  13. Maximum bit rate                         : 30.0 Mb/s
  14. Width                                    : 1 920 pixels
  15. Height                                   : 1 080 pixels
  16. Display aspect ratio                     : 16:9
  17. Frame rate mode                          : Constant
  18. Frame rate                               : 24.000 FPS
  19. Standard                                 : NTSC
  20. Color space                              : YUV
  21. Chroma subsampling                       : 4:2:0
  22. Bit depth                                : 8 bits
  23. Scan type                                : Progressive
  24. Bits/(Pixel*Frame)                       : 0.497
  25. Stream size                              : 15.5GB (83%)
  26. Title                                    : You.Were.Never.Really.2017.1080p.BluRay.REMUX.AVC.DTS-HD.MA.5.1-FGT
  27. Language                                 : English
  28. Default                                  : Yes
  29. Forced                                   : No
  30. Color range                              : Limited
  31. Color primaries                          : BT.709
  32. Transfer characteristics                 : BT.709
  33. Matrix coefficients                      : BT.709

  34. Audio #1
  35. ID                                       : 2
  36. Format                                   : DTS
  37. Format/Info                              : Digital Theater Systems
  38. Format profile                           : MA / Core
  39. Codec ID                                 : A_DTS
  40. Duration                                 : 1 h 29 min
  41. Bit rate mode                            : Variable / Constant
  42. Bit rate                                 : 3 393 kb/s / 1 509 kb/s
  43. Channel(s)                               : 6 channels
  44. Channel positions                        : Front: L C R, Side: L R, LFE
  45. Sampling rate                            : 48.0 kHz
  46. Frame rate                               : 93.750 FPS (512 SPF)
  47. Bit depth                                : 24 bits
  48. Compression mode                         : Lossless / Lossy
  49. Stream size                              : 2.12GB (11%)
  50. Title                                    : You.Were.Never.Really.2017.1080p.BluRay.REMUX.AVC.DTS-HD.MA.5.1-FGT
  51. Language                                 : English
  52. Default                                  : Yes
  53. Forced                                   : No

  54. Audio #2
  55. ID                                       : 3
  56. Format                                   : DTS
  57. Format/Info                              : Digital Theater Systems
  58. Codec ID                                 : A_DTS
  59. Duration                                 : 1 h 29 min
  60. Bit rate mode                            : Constant
  61. Bit rate                                 : 1 509 kb/s
  62. Channel(s)                               : 6 channels
  63. Channel positions                        : Front: L C R, Side: L R, LFE
  64. Sampling rate                            : 48.0 kHz
  65. Frame rate                               : 93.750 FPS (512 SPF)
  66. Bit depth                                : 24 bits
  67. Compression mode                         : Lossy
  68. Stream size                              : 966 MiB (5%)
  69. Title                                    : You.Were.Never.Really.2017.1080p.BluRay.REMUX.AVC.DTS-HD.MA.5.1-FGT
  70. Language                                 : English
  71. Default                                  : No
  72. Forced                                   : No

  73. Text
  74. ID                                       : 4
  75. Format                                   : UTF-8
  76. Codec ID                                 : S_TEXT/UTF8
  77. Codec ID/Info                            : UTF-8 Plain Text
  78. Duration                                 : 1 h 20 min
  79. Bit rate                                 : 23 b/s
  80. Count of elements                        : 502
  81. Stream size                              : 13.8 KiB (0%)
  82. Title                                    : English-SRT
  83. Language                                 : English
  84. Default                                  : Yes
  85. Forced                                   : No

  86. Menu
  87. 00:00:00.000                             : en:Chapter 1
  88. 00:11:50.291                             : en:Chapter 2
  89. 00:22:44.375                             : en:Chapter 3
  90. 00:31:55.833                             : en:Chapter 4
  91. 00:42:47.375                             : en:Chapter 5
  92. 00:53:22.583                             : en:Chapter 6
  93. 01:01:47.250                             : en:Chapter 7
  94. 01:09:53.625                             : en:Chapter 8



复制代码
复制代码
173819ztmjb0pmzte0omqz.jpg 173819yt9bvsvlvkwbww4k.jpg 173819thaubiiiccin8sff.jpg







回复

使用道具 举报

蓝光币
0
发表于 2018-4-14 15:57:07 | 显示全部楼层
谢谢楼主无私奉献 下载收藏啦
回复 支持 反对

使用道具 举报

蓝光币
154
发表于 2018-5-19 22:16:38 | 显示全部楼层
谢谢,好电影。
回复 支持 反对

使用道具 举报

蓝光币
239
发表于 2018-9-22 19:13:49 | 显示全部楼层
谢谢你的分享
回复 支持 反对

使用道具 举报

蓝光币
239
发表于 2018-9-22 19:27:45 | 显示全部楼层
非常感谢分享
回复 支持 反对

使用道具 举报

懒得打字嘛,点击右侧快捷回复 【右侧内容,后台自定义】
您需要登录后才可以回帖 登录 | 立即加入

本版积分规则

Archiver|小黑屋| 蓝光电影网 |网站地图

Copyright © 2021 Comsenz Inc. Powered by 蓝光电影网

蓝光电影网

本站内容由用户自主分享和转载自互联网,转载目的在于传递更多信息,并不代表本网赞同其观点和对其真实性负责。

如有侵权、违反国家法律政策行为,请联系我们,我们会第一时间及时清除和处理!

举报反馈邮箱:[email protected]

快速回复 返回顶部 返回列表