找回密码

蓝光电影网

查看: 1771|回复: 2

[剧情] 神秘代码/末日预言 Knowing.2009.1080p.BluRay.x264.TrueHD.7.1.Atmos-SWTYBLZ 13.93GB

[复制链接]
蓝光币
623
发表于 2018-4-11 22:27:55 | 显示全部楼层 |阅读模式
173809ot7apz7rd0st9pxg.jpg
◎译  名 奥秘代码/末日预言/地球扑灭密码/预难大流亡/先知
◎片  名 Knowing
◎年  代 2009
◎产  地 美国/英国/澳大利亚
◎类  别 剧情/科幻/悬疑/惊悚/灾难
◎语  言 英语
◎上映日期 2009-03-09(纽约首映)/2009-03-20(美国)/2009-10-30(中国大陆)
◎IMDb评分  6.2/10 from 201,001 users
◎IMDb链接  http://www.imdb.com/title/tt0448011/
◎豆瓣评分 6.6/10 from 90,275 users
◎豆瓣链接 https://movie.douban.com/subject/2354729/
◎片  长 121 分钟
◎导  演 亚历克斯·普罗亚斯 Alex Proyas
◎主  演 尼古拉斯·凯奇 Nicolas Cage
      钱德勒·坎特布瑞 Chandler Canterbury
      萝丝·拜恩 Rose Byrne
      Lara Robinson
      D.G. Maloney

◎简  介

  1959年,美国马塞诸塞州列辛顿威廉道斯小学,该校行将迎来校庆日,小女孩露辛达?安伯利(Lara Robinson 饰)提出的创意为校长所采用。校庆日时,门生们将画下自己对未来的设想,并集合放入金属时候囊中埋上天下,预备50年后重新开启。校庆日以后,举止怪异的露辛达用鲜血在墙上写下希奇笔墨,并向教员提出警告。
  2009年,威廉道斯小学再次迎来校庆日,被埋藏地下50年之久的时候囊重见天日。小男孩凯勒(Chandler Canterbury 饰)获得露辛达的信,上面没有任何图画,整页布满毫无纪律可言的数字。凯勒的父亲约翰(尼古拉斯?凯奇 Nicolas Cage 饰)夜晚研讨这些数字,竟发现这是一组具有预言性的密码。文中的数字清楚记录了天下上曩昔50年所发生的各类灾难。除此之外,这组数字还包括了接下来将发生的严重灾难……


  1. Video
  2. ID                                       : 1
  3. Format                                   : AVC
  4. Format/Info                              : Advanced Video Codec
  5. Format profile                           : [email protected]
  6. Format settings                          : CABAC / 5 Ref Frames
  7. Format settings, CABAC                   : Yes
  8. Format settings, ReFrames                : 5 frames
  9. Codec ID                                 : V_MPEG4/ISO/AVC
  10. Duration                                 : 2 h 1 min
  11. Bit rate                                 : 11.4 Mb/s
  12. Width                                    : 1 920 pixels
  13. Height                                   : 816 pixels
  14. Display aspect ratio                     : 2.35:1
  15. Frame rate mode                          : Constant
  16. Frame rate                               : 23.976 FPS
  17. Color space                              : YUV
  18. Chroma subsampling                       : 4:2:0
  19. Bit depth                                : 8 bits
  20. Scan type                                : Progressive
  21. Bits/(Pixel*Frame)                       : 0.303
  22. Stream size                              : 9.65GB (69%)
  23. Title                                    : Knowing.2009.1080p.BluRay.x264.TrueHD.7.1.Atmos-SWTYBLZ
  24. Writing library                          : x264 core 67 r1165 6841c5e
  25. Encoding settings                        : cabac=1 / ref=5 / deblock=1:0:0 / analyse=0x3:0x133 / me=umh / subme=7 / psy_rd=1.0:0.0 / mixed_ref=1 / me_range=16 / chroma_me=1 / trellis=1 / 8x8dct=1 / cqm=0 / deadzone=21,11 / chroma_qp_offset=-2 / threads=12 / nr=0 / decimate=1 / mbaff=0 / bframes=3 / b_pyramid=1 / b_adapt=1 / b_bias=0 / direct=1 / wpredb=1 / keyint=250 / keyint_min=25 / scenecut=40 / rc=2pass / bitrate=11375 / ratetol=1.0 / qcomp=0.60 / qpmin=10 / qpmax=51 / qpstep=4 / cplxblur=20.0 / qblur=0.5 / ip_ratio=1.40 / pb_ratio=1.30 / aq=1:1.00
  26. Language                                 : English
  27. Default                                  : Yes
  28. Forced                                   : No

  29. Audio #1
  30. ID                                       : 2
  31. Format                                   : TrueHD
  32. Format profile                           : TrueHD+Atmos / TrueHD
  33. Codec ID                                 : A_TRUEHD
  34. Duration                                 : 2 h 1 min
  35. Bit rate mode                            : Variable
  36. Bit rate                                 : 4 498 kb/s
  37. Maximum bit rate                         : 8 085 kb/s
  38. Channel(s)                               : Object Based / 8 channels
  39. Channel positions                        : Object Based / Front: L C R, Side: L R, Back: L R, LFE
  40. Sampling rate                            :  / 48.0 kHz
  41. Frame rate                               : 1 200.000 FPS (40 SPF)
  42. Compression mode                         : Lossless
  43. Delay relative to video                  : 1 ms
  44. Stream size                              : 3.82GB (27%)
  45. Title                                    : Knowing.2009.1080p.BluRay.x264.TrueHD.7.1.Atmos-SWTYBLZ
  46. Language                                 : English
  47. Default                                  : Yes
  48. Forced                                   : No

  49. Audio #2
  50. ID                                       : 3
  51. Format                                   : AC-3
  52. Format/Info                              : Audio Coding 3
  53. Codec ID                                 : A_AC3
  54. Duration                                 : 2 h 1 min
  55. Bit rate mode                            : Constant
  56. Bit rate                                 : 448 kb/s
  57. Channel(s)                               : 6 channels
  58. Channel positions                        : Front: L C R, Side: L R, LFE
  59. Sampling rate                            : 48.0 kHz
  60. Frame rate                               : 31.250 FPS (1536 SPF)
  61. Bit depth                                : 16 bits
  62. Compression mode                         : Lossy
  63. Delay relative to video                  : 1 ms
  64. Stream size                              : 389 MiB (3%)
  65. Title                                    : Knowing.2009.1080p.BluRay.x264.TrueHD.7.1.Atmos-SWTYBLZ
  66. Language                                 : English
  67. Service kind                             : Complete Main
  68. Default                                  : No
  69. Forced                                   : No

  70. Text #1
  71. ID                                       : 4
  72. Format                                   : UTF-8
  73. Codec ID                                 : S_TEXT/UTF8
  74. Codec ID/Info                            : UTF-8 Plain Text
  75. Duration                                 : 1 h 51 min
  76. Bit rate                                 : 47 b/s
  77. Count of elements                        : 971
  78. Stream size                              : 38.5 KiB (0%)
  79. Title                                    : English-SRT
  80. Language                                 : English
  81. Default                                  : Yes
  82. Forced                                   : No

  83. Text #2
  84. ID                                       : 5
  85. Format                                   : PGS
  86. Muxing mode                              : zlib
  87. Codec ID                                 : S_HDMV/PGS
  88. Codec ID/Info                            : Picture based subtitle format used on BDs/HD-DVDs
  89. Duration                                 : 1 h 52 min
  90. Bit rate                                 : 33.6 kb/s
  91. Count of elements                        : 2408
  92. Stream size                              : 27.1 MiB (0%)
  93. Title                                    : English-PGS
  94. Language                                 : English
  95. Default                                  : No
  96. Forced                                   : No

  97. Text #3
  98. ID                                       : 6
  99. Format                                   : PGS
  100. Muxing mode                              : zlib
  101. Codec ID                                 : S_HDMV/PGS
  102. Codec ID/Info                            : Picture based subtitle format used on BDs/HD-DVDs
  103. Duration                                 : 1 h 52 min
  104. Bit rate                                 : 26.6 kb/s
  105. Count of elements                        : 1948
  106. Stream size                              : 21.4 MiB (0%)
  107. Title                                    : Spanish-PGS
  108. Language                                 : Spanish
  109. Default                                  : No
  110. Forced                                   : No

  111. Text #4
  112. ID                                       : 7
  113. Format                                   : PGS
  114. Muxing mode                              : zlib
  115. Codec ID                                 : S_HDMV/PGS
  116. Codec ID/Info                            : Picture based subtitle format used on BDs/HD-DVDs
  117. Duration                                 : 1 h 10 min
  118. Bit rate                                 : 190 b/s
  119. Count of elements                        : 10
  120. Stream size                              : 97.6 KiB (0%)
  121. Title                                    : French-PGS
  122. Language                                 : French
  123. Default                                  : No
  124. Forced                                   : No

  125. Menu
  126. 00:00:00.000                             : en:Chapter 1
  127. 00:08:35.097                             : en:Chapter 2
  128. 00:15:20.210                             : en:Chapter 3
  129. 00:20:28.143                             : en:Chapter 4
  130. 00:29:06.828                             : en:Chapter 5
  131. 00:36:52.752                             : en:Chapter 6
  132. 00:43:17.011                             : en:Chapter 7
  133. 00:49:04.524                             : en:Chapter 8
  134. 00:56:09.741                             : en:Chapter 9
  135. 01:02:31.038                             : en:Chapter 10
  136. 01:08:11.545                             : en:Chapter 11
  137. 01:16:17.322                             : en:Chapter 12
  138. 01:22:58.098                             : en:Chapter 13
  139. 01:30:14.700                             : en:Chapter 14
  140. 01:39:33.509                             : en:Chapter 15
  141. 01:50:31.166                             : en:Chapter 16



  142. Notes: Video 1080p bluray + audio 4k bluray.

复制代码
复制代码
173809efxxbflb4c2b4f22.jpg 173810up4fkb8bp59fxfy9.jpg 173810rb9qfjtdf00zqf7d.jpg







回复

使用道具 举报

蓝光币
821
发表于 2018-4-11 23:37:25 | 显示全部楼层
感谢分享好电影
回复 支持 反对

使用道具 举报

蓝光币
1368
发表于 2018-4-14 11:31:21 | 显示全部楼层
Thank you very much
回复 支持 反对

使用道具 举报

懒得打字嘛,点击右侧快捷回复 【右侧内容,后台自定义】
您需要登录后才可以回帖 登录 | 立即加入

本版积分规则

Archiver|小黑屋| 蓝光电影网 |网站地图

Copyright © 2021 Comsenz Inc. Powered by 蓝光电影网

蓝光电影网

本站内容由用户自主分享和转载自互联网,转载目的在于传递更多信息,并不代表本网赞同其观点和对其真实性负责。

如有侵权、违反国家法律政策行为,请联系我们,我们会第一时间及时清除和处理!

举报反馈邮箱:[email protected]

快速回复 返回顶部 返回列表