找回密码

蓝光电影网

查看: 1369|回复: 1

[纪录] 血路 Blood.Road.2017.720p.BluRay.x264-OBiTS 5.46GB

[复制链接]
蓝光币
623
发表于 2018-4-11 22:32:32 | 显示全部楼层 |阅读模式
153613mvl4vkn8v1wlv2kc.jpg
◎译  名 血路
◎片  名 Blood Road
◎年  代 2017
◎产  地 美国
◎类  别 记载片
◎语  言 英语/越南语 vietnamese
◎上映日期 2017-03-15(美国)
◎IMDb评分  6.8/10 from 128 users
◎IMDb链接  http://www.imdb.com/title/tt6900092/
◎豆瓣评分 /10 from 0 users
◎豆瓣链接 https://movie.douban.com/subject/27078062/
◎片  长 96分钟
◎导  演 Nicholas Schrunk
◎主  演 Rebecca Rusch
      Huyen Nguyen
      Jason Bauer

◎简  介

  The mysteries surrounding her father's death in the Vietnam war lead ultra-endurance mountain biker Rebecca Rusch on an emotional journey as she pedals 1200 miles of the Ho Chi Minh trail.


  1. Video
  2. ID                                       : 1
  3. Format                                   : AVC
  4. Format/Info                              : Advanced Video Codec
  5. Format profile                           : [email protected]
  6. Format settings                          : CABAC / 5 Ref Frames
  7. Format settings, CABAC                   : Yes
  8. Format settings, RefFrames               : 5 frames
  9. Codec ID                                 : V_MPEG4/ISO/AVC
  10. Duration                                 : 1 h 36 min
  11. Bit rate                                 : 7 499 kb/s
  12. Width                                    : 1 280 pixels
  13. Height                                   : 536 pixels
  14. Display aspect ratio                     : 2.40:1
  15. Frame rate mode                          : Constant
  16. Frame rate                               : 23.976 (24000/1001) FPS
  17. Color space                              : YUV
  18. Chroma subsampling                       : 4:2:0
  19. Bit depth                                : 8 bits
  20. Scan type                                : Progressive
  21. Bits/(Pixel*Frame)                       : 0.456
  22. Stream size                              : 5.03GB (92%)
  23. Writing library                          : x264 core 155 r2901 7d0ff22
  24. Encoding settings                        : cabac=1 / ref=5 / deblock=1:-3:-3 / analyse=0x3:0x113 / me=umh / subme=8 / psy=1 / psy_rd=1.00:0.00 / mixed_ref=1 / me_range=16 / chroma_me=1 / trellis=1 / 8x8dct=1 / cqm=0 / deadzone=21,11 / fast_pskip=1 / chroma_qp_offset=-2 / threads=12 / lookahead_threads=2 / sliced_threads=0 / nr=0 / decimate=1 / interlaced=0 / bluray_compat=0 / constrained_intra=0 / bframes=3 / b_pyramid=2 / b_adapt=2 / b_bias=0 / direct=3 / weightb=1 / open_gop=0 / weightp=2 / keyint=240 / keyint_min=24 / scenecut=40 / intra_refresh=0 / rc_lookahead=50 / rc=2pass / mbtree=1 / bitrate=7499 / ratetol=1.0 / qcomp=0.60 / qpmin=0 / qpmax=69 / qpstep=4 / cplxblur=20.0 / qblur=0.5 / vbv_maxrate=62500 / vbv_bufsize=78125 / nal_hrd=none / filler=0 / ip_ratio=1.40 / aq=1:1.00
  25. Language                                 : English
  26. Default                                  : Yes
  27. Forced                                   : No

  28. Audio
  29. ID                                       : 2
  30. Format                                   : AC-3
  31. Format/Info                              : Audio Coding 3
  32. Format settings, Endianness              : Big
  33. Codec ID                                 : A_AC3
  34. Duration                                 : 1 h 36 min
  35. Bit rate mode                            : Constant
  36. Bit rate                                 : 640 kb/s
  37. Channel(s)                               : 6 channels
  38. Channel positions                        : Front: L C R, Side: L R, LFE
  39. Sampling rate                            : 48.0 kHz
  40. Frame rate                               : 31.250 FPS (1536 SPF)
  41. Bit depth                                : 16 bits
  42. Compression mode                         : Lossy
  43. Stream size                              : 441 MiB (8%)
  44. Language                                 : English
  45. Service kind                             : Complete Main
  46. Default                                  : Yes
  47. Forced                                   : No

  48. Text #1
  49. ID                                       : 3
  50. Format                                   : UTF-8
  51. Codec ID                                 : S_TEXT/UTF8
  52. Codec ID/Info                            : UTF-8 Plain Text
  53. Duration                                 : 1 h 22 min
  54. Bit rate                                 : 11 b/s
  55. Count of elements                        : 157
  56. Stream size                              : 6.93 KiB (0%)
  57. Title                                    : English
  58. Language                                 : English
  59. Default                                  : Yes
  60. Forced                                   : Yes

  61. Text #2
  62. ID                                       : 4
  63. Format                                   : UTF-8
  64. Codec ID                                 : S_TEXT/UTF8
  65. Codec ID/Info                            : UTF-8 Plain Text
  66. Duration                                 : 1 h 35 min
  67. Bit rate                                 : 89 b/s
  68. Count of elements                        : 1589
  69. Stream size                              : 62.4 KiB (0%)
  70. Title                                    : English SDH
  71. Language                                 : English
  72. Default                                  : No
  73. Forced                                   : No

  74. Menu
  75. 00:00:00.000                             : en:00:00:00.000
  76. 00:11:27.687                             : en:00:11:27.687
  77. 00:25:36.535                             : en:00:25:36.535
  78. 00:34:41.079                             : en:00:34:41.079
  79. 00:48:38.916                             : en:00:48:38.916
  80. 01:02:24.741                             : en:01:02:24.741
  81. 01:10:47.243                             : en:01:10:47.243
  82. 01:23:54.029                             : en:01:23:54.029




复制代码
复制代码
153613h301bz1b010x1395.jpg





回复

使用道具 举报

蓝光币
1323
发表于 2018-4-18 16:20:27 | 显示全部楼层
谢谢楼主分享!
回复 支持 反对

使用道具 举报

懒得打字嘛,点击右侧快捷回复 【右侧内容,后台自定义】
您需要登录后才可以回帖 登录 | 立即加入

本版积分规则

Archiver|小黑屋| 蓝光电影网 |网站地图

Copyright © 2021 Comsenz Inc. Powered by 蓝光电影网

蓝光电影网

本站内容由用户自主分享和转载自互联网,转载目的在于传递更多信息,并不代表本网赞同其观点和对其真实性负责。

如有侵权、违反国家法律政策行为,请联系我们,我们会第一时间及时清除和处理!

举报反馈邮箱:[email protected]

快速回复 返回顶部 返回列表