找回密码

蓝光电影网

查看: 2610|回复: 5

异能/移动城市 Push.2009.2160p.BluRay.REMUX.HEVC.DTS-HD.MA.TrueHD.7.1.Atmos-FGT 53.26GB

[复制链接]
蓝光币
623
发表于 2018-4-11 22:37:31 | 显示全部楼层 |阅读模式
045646wtnbggg7tgczslql.jpg
◎译  名 异能/移动城市/超能豪杰
◎片  名 Push
◎年  代 2009
◎产  地 加拿大/英国/美国
◎类  别 行动/科幻/惊悚
◎语  言 英语/粤语
◎上映日期 2009-02-06(加拿大)
◎IMDb评分  6.1/10 from 96,923 users
◎IMDb链接  http://www.imdb.com/title/tt0465580/
◎豆瓣评分 5.9/10 from 23,810 users
◎豆瓣链接 https://movie.douban.com/subject/1946776/
◎片  长 111 分钟
◎导  演 保罗·麦奎根 Paul McGuigan
◎主  演 克里斯·埃文斯 Chris Evans
      达寇塔·范宁 Dakota Fanning
      卡米拉·贝勒 Camilla Belle
      李小璐 Xiaolu Li
      杰曼·翰苏 Djimon Hounsou
      温明娜 Ming-Na

◎简  介

  【剧情1】二战后,美国政府处处搜寻特异功强人士,并建立出格“部分”对其停止人体尝试,试图将异能植入兵士体内作为战争兵器。在一次药物实验中心灵感应“推手”姬拉(卡米拉·贝勒 Camilla Belle 饰)携药品逃至香港,“部分”派出奸细亨利?卡佛(杰曼·韩苏 Djimon Hounsou 饰)负责追捕。香港某区,一向回避“部分”的意念移物“灵动听”尼克(克里斯?埃文斯 Chris Evans 饰)帮助可预见未来的“透视人”少女卡西(达科塔·范宁 Dakota Fanning 饰)逃出音爆人兄弟及其 “透视人” 妹妹“棒棒糖女孩”(李小璐饰)的追杀。在当地灵异人士的帮助下,尼克与卡西找到姬拉,却发现在药物的影响下,姬拉已然命在旦夕……
  【剧情2】1945年,纳粹科学家不竭停止超能转移的实验,渴望将超乎平常的异能经过注射移入普通兵士的身材。虽然战争竣事,但这项实验仍在继续。战后,列国政府成扬名为“隔离区”的奥秘基地,他们四周网罗具有出色天赋的孩子停止实验,功效和灭亡跬步不离。异能者尼克(克里斯·埃文斯 Chris Evans 饰)的父亲(Joel Gretsch 饰)曾是某政府培育的超能杀人者。随着年龄的增加,他的父亲渴望过回正凡人的生活,成果却遭杀戮。十年后,隐居香港的尼克碰到13岁的小女孩凯希(达科塔·范宁 Dakota Fanning 饰)。凯希是一位观察者,她具有正确预知未来的才能。她从隔离区逃窜引发轩然大波,而和尼克的重逢也让工作变得越发复杂和危险……


  1. Video #1
  2. ID                                       : 1
  3. Format                                   : HEVC
  4. Format/Info                              : High Efficiency Video Coding
  5. Format profile                           : Main [email protected]@High
  6. Codec ID                                 : V_MPEGH/ISO/HEVC
  7. Duration                                 : 1 h 51 min
  8. Bit rate                                 : 49.7 Mb/s
  9. Width                                    : 3 840 pixels
  10. Height                                   : 2 160 pixels
  11. Display aspect ratio                     : 16:9
  12. Frame rate mode                          : Constant
  13. Frame rate                               : 23.976 (24000/1001) FPS
  14. Color space                              : YUV
  15. Chroma subsampling                       : 4:2:0 (Type 2)
  16. Bit depth                                : 10 bits
  17. Bits/(Pixel*Frame)                       : 0.250
  18. Stream size                              : 38.7GB (73%)
  19. Title                                    : Push.2009.2160p.BluRay.REMUX.HEVC.DTS-HD.MA.TrueHD.7.1.Atmos-FGT
  20. Default                                  : Yes
  21. Forced                                   : No
  22. Color range                              : Limited
  23. Color primaries                          : BT.2020
  24. Transfer characteristics                 : PQ
  25. Matrix coefficients                      : BT.2020 non-constant
  26. Mastering display color primaries        : Display P3
  27. Mastering display luminance              : min: 0.0050 cd/m2, max: 1000 cd/m2
  28. Maximum Content Light Level              : 1000 cd/m2
  29. Maximum Frame-Average Light Level        : 928 cd/m2

  30. Video #2
  31. ID                                       : 2
  32. Format                                   : HEVC
  33. Format/Info                              : High Efficiency Video Coding
  34. Format profile                           : Main [email protected]@High
  35. Codec ID                                 : V_MPEGH/ISO/HEVC
  36. Duration                                 : 1 h 51 min
  37. Bit rate                                 : 7 837 kb/s
  38. Width                                    : 1 920 pixels
  39. Height                                   : 1 080 pixels
  40. Display aspect ratio                     : 16:9
  41. Frame rate mode                          : Constant
  42. Frame rate                               : 23.976 (24000/1001) FPS
  43. Color space                              : YUV
  44. Chroma subsampling                       : 4:2:0 (Type 2)
  45. Bit depth                                : 10 bits
  46. Bits/(Pixel*Frame)                       : 0.158
  47. Stream size                              : 6.10GB (11%)
  48. Title                                    : Push.2009.2160p.BluRay.REMUX.HEVC.DTS-HD.MA.TrueHD.7.1.Atmos-FGT
  49. Default                                  : No
  50. Forced                                   : No
  51. Color range                              : Limited
  52. Color primaries                          : BT.2020
  53. Transfer characteristics                 : PQ
  54. Matrix coefficients                      : BT.2020 non-constant
  55. Mastering display color primaries        : Display P3
  56. Mastering display luminance              : min: 0.0050 cd/m2, max: 1000 cd/m2

  57. Audio #1
  58. ID                                       : 3
  59. Format                                   : TrueHD
  60. Format profile                           : TrueHD+Atmos / TrueHD
  61. Codec ID                                 : A_TRUEHD
  62. Duration                                 : 1 h 51 min
  63. Bit rate mode                            : Variable
  64. Bit rate                                 : 5 399 kb/s
  65. Maximum bit rate                         : 9 315 kb/s
  66. Channel(s)                               : Object Based / 8 channels
  67. Channel positions                        : Object Based / Front: L C R, Side: L R, Back: L R, LFE
  68. Sampling rate                            :  / 48.0 kHz
  69. Frame rate                               : 1 200.000 FPS (40 SPF)
  70. Compression mode                         : Lossless
  71. Delay relative to video                  : 1 ms
  72. Stream size                              : 4.20GB (8%)
  73. Title                                    : Push.2009.2160p.BluRay.REMUX.HEVC.DTS-HD.MA.TrueHD.7.1.Atmos-FGT
  74. Language                                 : English
  75. Default                                  : Yes
  76. Forced                                   : No

  77. Audio #2
  78. ID                                       : 4
  79. Format                                   : DTS
  80. Format/Info                              : Digital Theater Systems
  81. Format profile                           : MA / Core
  82. Codec ID                                 : A_DTS
  83. Duration                                 : 1 h 51 min
  84. Bit rate mode                            : Variable / Constant
  85. Bit rate                                 : 4 276 kb/s / 1 509 kb/s
  86. Channel(s)                               : 8 channels / 6 channels
  87. Channel positions                        : Front: L C R, Side: L R, Back: L R, LFE / Front: L C R, Side: L R, LFE
  88. Sampling rate                            : 48.0 kHz
  89. Frame rate                               : 93.750 FPS (512 SPF)
  90. Bit depth                                : 24 bits
  91. Compression mode                         : Lossless / Lossy
  92. Stream size                              : 3.33GB (6%)
  93. Title                                    : Push.2009.2160p.BluRay.REMUX.HEVC.DTS-HD.MA.TrueHD.7.1.Atmos-FGT
  94. Language                                 : English
  95. Default                                  : No
  96. Forced                                   : No

  97. Audio #3
  98. ID                                       : 5
  99. Format                                   : AC-3
  100. Format/Info                              : Audio Coding 3
  101. Codec ID                                 : A_AC3
  102. Duration                                 : 1 h 51 min
  103. Bit rate mode                            : Constant
  104. Bit rate                                 : 448 kb/s
  105. Channel(s)                               : 6 channels
  106. Channel positions                        : Front: L C R, Side: L R, LFE
  107. Sampling rate                            : 48.0 kHz
  108. Frame rate                               : 31.250 FPS (1536 SPF)
  109. Bit depth                                : 16 bits
  110. Compression mode                         : Lossy
  111. Delay relative to video                  : 1 ms
  112. Stream size                              : 357 MiB (1%)
  113. Title                                    : Push.2009.2160p.BluRay.REMUX.HEVC.DTS-HD.MA.TrueHD.7.1.Atmos-FGT
  114. Language                                 : English
  115. Service kind                             : Complete Main
  116. Default                                  : No
  117. Forced                                   : No

  118. Audio #4
  119. ID                                       : 6
  120. Format                                   : AC-3
  121. Format/Info                              : Audio Coding 3
  122. Codec ID                                 : A_AC3
  123. Duration                                 : 1 h 51 min
  124. Bit rate mode                            : Constant
  125. Bit rate                                 : 192 kb/s
  126. Channel(s)                               : 2 channels
  127. Channel positions                        : Front: L R
  128. Sampling rate                            : 48.0 kHz
  129. Frame rate                               : 31.250 FPS (1536 SPF)
  130. Bit depth                                : 16 bits
  131. Compression mode                         : Lossy
  132. Delay relative to video                  : 23 ms
  133. Stream size                              : 153 MiB (0%)
  134. Title                                    : Push.2009.2160p.BluRay.REMUX.HEVC.DTS-HD.MA.TrueHD.7.1.Atmos-FGT
  135. Language                                 : English
  136. Service kind                             : Complete Main
  137. Default                                  : No
  138. Forced                                   : No

  139. Audio #5
  140. ID                                       : 7
  141. Format                                   : AC-3
  142. Format/Info                              : Audio Coding 3
  143. Codec ID                                 : A_AC3
  144. Duration                                 : 1 h 51 min
  145. Bit rate mode                            : Constant
  146. Bit rate                                 : 448 kb/s
  147. Channel(s)                               : 6 channels
  148. Channel positions                        : Front: L C R, Side: L R, LFE
  149. Sampling rate                            : 48.0 kHz
  150. Frame rate                               : 31.250 FPS (1536 SPF)
  151. Bit depth                                : 16 bits
  152. Compression mode                         : Lossy
  153. Delay relative to video                  : 23 ms
  154. Stream size                              : 357 MiB (1%)
  155. Title                                    : Push.2009.2160p.BluRay.REMUX.HEVC.DTS-HD.MA.TrueHD.7.1.Atmos-FGT
  156. Language                                 : Spanish
  157. Service kind                             : Complete Main
  158. Default                                  : No
  159. Forced                                   : No

  160. Text #1
  161. ID                                       : 8
  162. Format                                   : PGS
  163. Muxing mode                              : zlib
  164. Codec ID                                 : S_HDMV/PGS
  165. Codec ID/Info                            : Picture based subtitle format used on BDs/HD-DVDs
  166. Duration                                 : 1 h 45 min
  167. Bit rate                                 : 28.6 kb/s
  168. Count of elements                        : 2054
  169. Stream size                              : 21.6 MiB (0%)
  170. Title                                    : English-PGS
  171. Language                                 : English
  172. Default                                  : Yes
  173. Forced                                   : No

  174. Text #2
  175. ID                                       : 9
  176. Format                                   : PGS
  177. Muxing mode                              : zlib
  178. Codec ID                                 : S_HDMV/PGS
  179. Codec ID/Info                            : Picture based subtitle format used on BDs/HD-DVDs
  180. Duration                                 : 1 h 45 min
  181. Bit rate                                 : 23.3 kb/s
  182. Count of elements                        : 1718
  183. Stream size                              : 17.7 MiB (0%)
  184. Title                                    : Spanish-PGS
  185. Language                                 : Spanish
  186. Default                                  : No
  187. Forced                                   : No

  188. Menu
  189. 00:00:00.000                             : en:Chapter 1
  190. 00:07:37.248                             : en:Chapter 2
  191. 00:15:16.916                             : en:Chapter 3
  192. 00:21:54.146                             : en:Chapter 4
  193. 00:28:58.361                             : en:Chapter 5
  194. 00:33:56.743                             : en:Chapter 6
  195. 00:40:30.136                             : en:Chapter 7
  196. 00:47:04.446                             : en:Chapter 8
  197. 00:54:15.335                             : en:Chapter 9
  198. 01:03:20.713                             : en:Chapter 10
  199. 01:10:14.793                             : en:Chapter 11
  200. 01:16:47.352                             : en:Chapter 12
  201. 01:23:14.030                             : en:Chapter 13
  202. 01:30:03.564                             : en:Chapter 14
  203. 01:32:29.669                             : en:Chapter 15
  204. 01:43:19.818                             : en:Chapter 16



复制代码
复制代码
045647bqqj2ba3kqo3m3bj.jpg 045648ixfxvnh9gxxgg29o.jpg 045648s3u112354omqu6h5.jpg







回复

使用道具 举报

蓝光币
248
发表于 2018-11-2 22:44:25 | 显示全部楼层
真是难得给力的帖子啊。
回复 支持 反对

使用道具 举报

懒得打字嘛,点击右侧快捷回复 【右侧内容,后台自定义】
您需要登录后才可以回帖 登录 | 立即加入

本版积分规则

Archiver|小黑屋| 蓝光电影网 |网站地图

Copyright © 2021 Comsenz Inc. Powered by 蓝光电影网

蓝光电影网

本站内容由用户自主分享和转载自互联网,转载目的在于传递更多信息,并不代表本网赞同其观点和对其真实性负责。

如有侵权、违反国家法律政策行为,请联系我们,我们会第一时间及时清除和处理!

举报反馈邮箱:[email protected]

快速回复 返回顶部 返回列表