找回密码

蓝光电影网

查看: 2633|回复: 3

神秘代码/末日预言 Knowing.2009.2160p.BluRay.REMUX.HEVC.DTS-HD.MA.TrueHD.7.1.Atmos-FGT 50.07GB

[复制链接]
蓝光币
623
发表于 2018-4-11 22:38:16 | 显示全部楼层 |阅读模式
092826gauakunikici8zia.jpg
◎译  名 奥秘代码/末日预言/地球扑灭密码/预难大流亡/先知
◎片  名 Knowing
◎年  代 2009
◎产  地 美国/英国/澳大利亚
◎类  别 剧情/科幻/悬疑/惊悚/灾难
◎语  言 英语
◎上映日期 2009-03-09(纽约首映)/2009-03-20(美国)/2009-10-30(中国大陆)
◎IMDb评分  6.2/10 from 200,994 users
◎IMDb链接  http://www.imdb.com/title/tt0448011/
◎豆瓣评分 6.6/10 from 90,266 users
◎豆瓣链接 https://movie.douban.com/subject/2354729/
◎片  长 121 分钟
◎导  演 亚历克斯·普罗亚斯 Alex Proyas
◎主  演 尼古拉斯·凯奇 Nicolas Cage
      钱德勒·坎特布瑞 Chandler Canterbury
      萝丝·拜恩 Rose Byrne
      Lara Robinson
      D.G. Maloney

◎简  介

  1959年,美国马塞诸塞州列辛顿威廉道斯小学,该校行将迎来校庆日,小女孩露辛达?安伯利(Lara Robinson 饰)提出的创意为校长所采用。校庆日时,门生们将画下自己对未来的设想,并集合放入金属时候囊中埋上天下,预备50年后重新开启。校庆日以后,举止怪异的露辛达用鲜血在墙上写下希奇笔墨,并向教员提出警告。
  2009年,威廉道斯小学再次迎来校庆日,被埋藏地下50年之久的时候囊重见天日。小男孩凯勒(Chandler Canterbury 饰)获得露辛达的信,上面没有任何图画,整页布满毫无纪律可言的数字。凯勒的父亲约翰(尼古拉斯?凯奇 Nicolas Cage 饰)夜晚研讨这些数字,竟发现这是一组具有预言性的密码。文中的数字清楚记录了天下上曩昔50年所发生的各类灾难。除此之外,这组数字还包括了接下来将发生的严重灾难……


  1. Video #1
  2. ID                                       : 1
  3. Format                                   : HEVC
  4. Format/Info                              : High Efficiency Video Coding
  5. Format profile                           : Main [email protected]@High
  6. Codec ID                                 : V_MPEGH/ISO/HEVC
  7. Duration                                 : 2 h 1 min
  8. Bit rate                                 : 40.9 Mb/s
  9. Width                                    : 3 840 pixels
  10. Height                                   : 2 160 pixels
  11. Display aspect ratio                     : 16:9
  12. Frame rate mode                          : Constant
  13. Frame rate                               : 23.976 (24000/1001) FPS
  14. Color space                              : YUV
  15. Chroma subsampling                       : 4:2:0 (Type 2)
  16. Bit depth                                : 10 bits
  17. Bits/(Pixel*Frame)                       : 0.206
  18. Stream size                              : 34.7GB (69%)
  19. Title                                    : Knowing.2009.2160p.BluRay.REMUX.HEVC.DTS-HD.MA.TrueHD.7.1.Atmos-FGT
  20. Default                                  : Yes
  21. Forced                                   : No
  22. Color range                              : Limited
  23. Color primaries                          : BT.2020
  24. Transfer characteristics                 : PQ
  25. Matrix coefficients                      : BT.2020 non-constant
  26. Mastering display color primaries        : Display P3
  27. Mastering display luminance              : min: 0.0050 cd/m2, max: 1000 cd/m2
  28. Maximum Content Light Level              : 1000 cd/m2
  29. Maximum Frame-Average Light Level        : 985 cd/m2

  30. Video #2
  31. ID                                       : 2
  32. Format                                   : HEVC
  33. Format/Info                              : High Efficiency Video Coding
  34. Format profile                           : Main [email protected]@High
  35. Codec ID                                 : V_MPEGH/ISO/HEVC
  36. Duration                                 : 2 h 1 min
  37. Bit rate                                 : 8 138 kb/s
  38. Width                                    : 1 920 pixels
  39. Height                                   : 1 080 pixels
  40. Display aspect ratio                     : 16:9
  41. Frame rate mode                          : Constant
  42. Frame rate                               : 23.976 (24000/1001) FPS
  43. Color space                              : YUV
  44. Chroma subsampling                       : 4:2:0 (Type 2)
  45. Bit depth                                : 10 bits
  46. Bits/(Pixel*Frame)                       : 0.164
  47. Stream size                              : 6.91GB (14%)
  48. Title                                    : Knowing.2009.2160p.BluRay.REMUX.HEVC.DTS-HD.MA.TrueHD.7.1.Atmos-FGT
  49. Default                                  : No
  50. Forced                                   : No
  51. Color range                              : Limited
  52. Color primaries                          : BT.2020
  53. Transfer characteristics                 : PQ
  54. Matrix coefficients                      : BT.2020 non-constant
  55. Mastering display color primaries        : Display P3
  56. Mastering display luminance              : min: 0.0050 cd/m2, max: 1000 cd/m2

  57. Audio #1
  58. ID                                       : 3
  59. Format                                   : TrueHD
  60. Format profile                           : TrueHD+Atmos / TrueHD
  61. Codec ID                                 : A_TRUEHD
  62. Duration                                 : 2 h 1 min
  63. Bit rate mode                            : Variable
  64. Bit rate                                 : 4 498 kb/s
  65. Maximum bit rate                         : 8 085 kb/s
  66. Channel(s)                               : Object Based / 8 channels
  67. Channel positions                        : Object Based / Front: L C R, Side: L R, Back: L R, LFE
  68. Sampling rate                            :  / 48.0 kHz
  69. Frame rate                               : 1 200.000 FPS (40 SPF)
  70. Compression mode                         : Lossless
  71. Delay relative to video                  : 1 ms
  72. Stream size                              : 3.82GB (8%)
  73. Title                                    : Knowing.2009.2160p.BluRay.REMUX.HEVC.DTS-HD.MA.TrueHD.7.1.Atmos-FGT
  74. Language                                 : English
  75. Default                                  : Yes
  76. Forced                                   : No

  77. Audio #2
  78. ID                                       : 4
  79. Format                                   : DTS
  80. Format/Info                              : Digital Theater Systems
  81. Format profile                           : MA / Core
  82. Codec ID                                 : A_DTS
  83. Duration                                 : 2 h 1 min
  84. Bit rate mode                            : Variable / Constant
  85. Bit rate                                 : 3 840 kb/s / 1 509 kb/s
  86. Channel(s)                               : 8 channels / 6 channels
  87. Channel positions                        : Front: L C R, Side: L R, Back: L R, LFE / Front: L C R, Side: L R, LFE
  88. Sampling rate                            : 48.0 kHz
  89. Frame rate                               : 93.750 FPS (512 SPF)
  90. Bit depth                                : 24 bits
  91. Compression mode                         : Lossless / Lossy
  92. Stream size                              : 3.24GB (6%)
  93. Title                                    : Knowing.2009.2160p.BluRay.REMUX.HEVC.DTS-HD.MA.TrueHD.7.1.Atmos-FGT
  94. Language                                 : English
  95. Default                                  : No
  96. Forced                                   : No

  97. Audio #3
  98. ID                                       : 5
  99. Format                                   : AC-3
  100. Format/Info                              : Audio Coding 3
  101. Codec ID                                 : A_AC3
  102. Duration                                 : 2 h 1 min
  103. Bit rate mode                            : Constant
  104. Bit rate                                 : 448 kb/s
  105. Channel(s)                               : 6 channels
  106. Channel positions                        : Front: L C R, Side: L R, LFE
  107. Sampling rate                            : 48.0 kHz
  108. Frame rate                               : 31.250 FPS (1536 SPF)
  109. Bit depth                                : 16 bits
  110. Compression mode                         : Lossy
  111. Delay relative to video                  : 1 ms
  112. Stream size                              : 389 MiB (1%)
  113. Title                                    : Knowing.2009.2160p.BluRay.REMUX.HEVC.DTS-HD.MA.TrueHD.7.1.Atmos-FGT
  114. Language                                 : English
  115. Service kind                             : Complete Main
  116. Default                                  : No
  117. Forced                                   : No

  118. Audio #4
  119. ID                                       : 6
  120. Format                                   : AC-3
  121. Format/Info                              : Audio Coding 3
  122. Codec ID                                 : A_AC3
  123. Duration                                 : 2 h 1 min
  124. Bit rate mode                            : Constant
  125. Bit rate                                 : 448 kb/s
  126. Channel(s)                               : 6 channels
  127. Channel positions                        : Front: L C R, Side: L R, LFE
  128. Sampling rate                            : 48.0 kHz
  129. Frame rate                               : 31.250 FPS (1536 SPF)
  130. Bit depth                                : 16 bits
  131. Compression mode                         : Lossy
  132. Delay relative to video                  : 23 ms
  133. Stream size                              : 389 MiB (1%)
  134. Title                                    : Knowing.2009.2160p.BluRay.REMUX.HEVC.DTS-HD.MA.TrueHD.7.1.Atmos-FGT
  135. Language                                 : Spanish
  136. Service kind                             : Complete Main
  137. Default                                  : No
  138. Forced                                   : No

  139. Audio #5
  140. ID                                       : 7
  141. Format                                   : AC-3
  142. Format/Info                              : Audio Coding 3
  143. Codec ID                                 : A_AC3
  144. Duration                                 : 2 h 1 min
  145. Bit rate mode                            : Constant
  146. Bit rate                                 : 448 kb/s
  147. Channel(s)                               : 6 channels
  148. Channel positions                        : Front: L C R, Side: L R, LFE
  149. Sampling rate                            : 48.0 kHz
  150. Frame rate                               : 31.250 FPS (1536 SPF)
  151. Bit depth                                : 16 bits
  152. Compression mode                         : Lossy
  153. Delay relative to video                  : 23 ms
  154. Stream size                              : 389 MiB (1%)
  155. Title                                    : Knowing.2009.2160p.BluRay.REMUX.HEVC.DTS-HD.MA.TrueHD.7.1.Atmos-FGT
  156. Language                                 : French
  157. Service kind                             : Complete Main
  158. Default                                  : No
  159. Forced                                   : No

  160. Audio #6
  161. ID                                       : 8
  162. Format                                   : AC-3
  163. Format/Info                              : Audio Coding 3
  164. Codec ID                                 : A_AC3
  165. Duration                                 : 2 h 1 min
  166. Bit rate mode                            : Constant
  167. Bit rate                                 : 192 kb/s
  168. Channel(s)                               : 2 channels
  169. Channel positions                        : Front: L R
  170. Sampling rate                            : 48.0 kHz
  171. Frame rate                               : 31.250 FPS (1536 SPF)
  172. Bit depth                                : 16 bits
  173. Compression mode                         : Lossy
  174. Delay relative to video                  : 23 ms
  175. Stream size                              : 167 MiB (0%)
  176. Title                                    : Knowing.2009.2160p.BluRay.REMUX.HEVC.DTS-HD.MA.TrueHD.7.1.Atmos-FGT
  177. Language                                 : English
  178. Service kind                             : Complete Main
  179. Default                                  : No
  180. Forced                                   : No

  181. Text #1
  182. ID                                       : 9
  183. Format                                   : PGS
  184. Muxing mode                              : zlib
  185. Codec ID                                 : S_HDMV/PGS
  186. Codec ID/Info                            : Picture based subtitle format used on BDs/HD-DVDs
  187. Duration                                 : 1 h 52 min
  188. Bit rate                                 : 33.6 kb/s
  189. Count of elements                        : 2408
  190. Stream size                              : 27.1 MiB (0%)
  191. Title                                    : English-PGS
  192. Language                                 : English
  193. Default                                  : Yes
  194. Forced                                   : No

  195. Text #2
  196. ID                                       : 10
  197. Format                                   : PGS
  198. Muxing mode                              : zlib
  199. Codec ID                                 : S_HDMV/PGS
  200. Codec ID/Info                            : Picture based subtitle format used on BDs/HD-DVDs
  201. Duration                                 : 1 h 52 min
  202. Bit rate                                 : 26.6 kb/s
  203. Count of elements                        : 1948
  204. Stream size                              : 21.4 MiB (0%)
  205. Title                                    : Spanish-PGS
  206. Language                                 : Spanish
  207. Default                                  : No
  208. Forced                                   : No

  209. Text #3
  210. ID                                       : 11
  211. Format                                   : PGS
  212. Muxing mode                              : zlib
  213. Codec ID                                 : S_HDMV/PGS
  214. Codec ID/Info                            : Picture based subtitle format used on BDs/HD-DVDs
  215. Duration                                 : 1 h 10 min
  216. Bit rate                                 : 190 b/s
  217. Count of elements                        : 10
  218. Stream size                              : 97.6 KiB (0%)
  219. Title                                    : French-PGS
  220. Language                                 : French
  221. Default                                  : No
  222. Forced                                   : No

  223. Menu
  224. 00:00:00.000                             : en:Chapter 1
  225. 00:08:35.097                             : en:Chapter 2
  226. 00:15:20.210                             : en:Chapter 3
  227. 00:20:28.143                             : en:Chapter 4
  228. 00:29:06.828                             : en:Chapter 5
  229. 00:36:52.752                             : en:Chapter 6
  230. 00:43:17.011                             : en:Chapter 7
  231. 00:49:04.524                             : en:Chapter 8
  232. 00:56:09.741                             : en:Chapter 9
  233. 01:02:31.038                             : en:Chapter 10
  234. 01:08:11.545                             : en:Chapter 11
  235. 01:16:17.322                             : en:Chapter 12
  236. 01:22:58.098                             : en:Chapter 13
  237. 01:30:14.700                             : en:Chapter 14
  238. 01:39:33.509                             : en:Chapter 15
  239. 01:50:31.166                             : en:Chapter 16



复制代码
复制代码
092827rg912c2l90kvcl0c.jpg 092827zbk8n63k8b4nrwh8.jpg 092827p2q64anr22ql6uaq.jpg







回复

使用道具 举报

蓝光币
3072
发表于 2018-4-13 01:50:50 | 显示全部楼层
楼主加油,我们都看好你哦。
回复 支持 反对

使用道具 举报

蓝光币
189
发表于 2018-4-18 17:58:48 | 显示全部楼层
强烈支持楼主ing……
回复 支持 反对

使用道具 举报

蓝光币
189
发表于 2018-5-29 09:48:22 | 显示全部楼层
强烈支持楼主ing……
回复 支持 反对

使用道具 举报

懒得打字嘛,点击右侧快捷回复 【右侧内容,后台自定义】
您需要登录后才可以回帖 登录 | 立即加入

本版积分规则

Archiver|小黑屋| 蓝光电影网 |网站地图

Copyright © 2021 Comsenz Inc. Powered by 蓝光电影网

蓝光电影网

本站内容由用户自主分享和转载自互联网,转载目的在于传递更多信息,并不代表本网赞同其观点和对其真实性负责。

如有侵权、违反国家法律政策行为,请联系我们,我们会第一时间及时清除和处理!

举报反馈邮箱:[email protected]

快速回复 返回顶部 返回列表