找回密码

蓝光电影网

查看: 2595|回复: 5

神秘代码/末日预言 Knowing.2009.2160p.BluRay.x264.8bit.SDR.DTS-HD.MA.TrueHD.7.1.Atmos-SWTYBLZ 25.12GB

[复制链接]
蓝光币
623
发表于 2018-4-11 22:39:00 | 显示全部楼层 |阅读模式
195406viw365901a0w49aa.jpg
◎译  名 奥秘代码/末日预言/地球扑灭密码/预难大流亡/先知
◎片  名 Knowing
◎年  代 2009
◎产  地 美国/英国/澳大利亚
◎类  别 剧情/科幻/悬疑/惊悚/灾难
◎语  言 英语
◎上映日期 2009-03-09(纽约首映)/2009-03-20(美国)/2009-10-30(中国大陆)
◎IMDb评分  6.2/10 from 201,004 users
◎IMDb链接  http://www.imdb.com/title/tt0448011/
◎豆瓣评分 6.6/10 from 90,276 users
◎豆瓣链接 https://movie.douban.com/subject/2354729/
◎片  长 121 分钟
◎导  演 亚历克斯·普罗亚斯 Alex Proyas
◎主  演 尼古拉斯·凯奇 Nicolas Cage
      钱德勒·坎特布瑞 Chandler Canterbury
      萝丝·拜恩 Rose Byrne
      Lara Robinson
      D.G. Maloney

◎简  介

  1959年,美国马塞诸塞州列辛顿威廉道斯小学,该校行将迎来校庆日,小女孩露辛达?安伯利(Lara Robinson 饰)提出的创意为校长所采用。校庆日时,门生们将画下自己对未来的设想,并集合放入金属时候囊中埋上天下,预备50年后重新开启。校庆日以后,举止怪异的露辛达用鲜血在墙上写下希奇笔墨,并向教员提出警告。
  2009年,威廉道斯小学再次迎来校庆日,被埋藏地下50年之久的时候囊重见天日。小男孩凯勒(Chandler Canterbury 饰)获得露辛达的信,上面没有任何图画,整页布满毫无纪律可言的数字。凯勒的父亲约翰(尼古拉斯?凯奇 Nicolas Cage 饰)夜晚研讨这些数字,竟发现这是一组具有预言性的密码。文中的数字清楚记录了天下上曩昔50年所发生的各类灾难。除此之外,这组数字还包括了接下来将发生的严重灾难……



  1. Video
  2. ID                                       : 1
  3. Format                                   : AVC
  4. Format/Info                              : Advanced Video Codec
  5. Format profile                           : [email protected]
  6. Format settings                          : CABAC / 5 Ref Frames
  7. Format settings, CABAC                   : Yes
  8. Format settings, RefFrames               : 5 frames
  9. Codec ID                                 : V_MPEG4/ISO/AVC
  10. Duration                                 : 2 h 1 min
  11. Bit rate                                 : 20.6 Mb/s
  12. Width                                    : 3 840 pixels
  13. Height                                   : 1 634 pixels
  14. Display aspect ratio                     : 2.35:1
  15. Frame rate mode                          : Constant
  16. Frame rate                               : 23.976 (24000/1001) FPS
  17. Color space                              : YUV
  18. Chroma subsampling                       : 4:2:0
  19. Bit depth                                : 8 bits
  20. Scan type                                : Progressive
  21. Bits/(Pixel*Frame)                       : 0.137
  22. Stream size                              : 17.5GB (70%)
  23. Title                                    : Knowing.2009.2160p.BluRay.x264.8bit.SDR.DTS-HD.MA.TrueHD.7.1.Atmos-SWTYBLZ
  24. Writing library                          : x264 core 148 r2748 97eaef2
  25. Encoding settings                        : cabac=1 / ref=5 / deblock=1:-1:-1 / analyse=0x3:0x113 / me=umh / subme=10 / psy=1 / psy_rd=1.00:0.15 / mixed_ref=1 / me_range=48 / chroma_me=1 / trellis=2 / 8x8dct=1 / cqm=0 / deadzone=21,11 / fast_pskip=1 / chroma_qp_offset=-3 / threads=51 / lookahead_threads=4 / sliced_threads=0 / nr=0 / decimate=0 / interlaced=0 / bluray_compat=0 / constrained_intra=0 / bframes=3 / b_pyramid=2 / b_adapt=2 / b_bias=0 / direct=3 / weightb=1 / open_gop=0 / weightp=2 / keyint=250 / keyint_min=23 / scenecut=40 / intra_refresh=0 / rc_lookahead=50 / rc=crf / mbtree=1 / crf=18.0 / qcomp=0.60 / qpmin=0 / qpmax=69 / qpstep=4 / ip_ratio=1.40 / aq=1:1.00
  26. Default                                  : Yes
  27. Forced                                   : No

  28. Audio #1
  29. ID                                       : 2
  30. Format                                   : TrueHD
  31. Format profile                           : TrueHD+Atmos / TrueHD
  32. Codec ID                                 : A_TRUEHD
  33. Duration                                 : 2 h 1 min
  34. Bit rate mode                            : Variable
  35. Bit rate                                 : 4 498 kb/s
  36. Maximum bit rate                         : 8 085 kb/s
  37. Channel(s)                               : Object Based / 8 channels
  38. Channel positions                        : Object Based / Front: L C R, Side: L R, Back: L R, LFE
  39. Sampling rate                            :  / 48.0 kHz
  40. Frame rate                               : 1 200.000 FPS (40 SPF)
  41. Compression mode                         : Lossless
  42. Delay relative to video                  : 1 ms
  43. Stream size                              : 3.82GB (15%)
  44. Title                                    : Knowing.2009.2160p.BluRay.x264.8bit.SDR.DTS-HD.MA.TrueHD.7.1.Atmos-SWTYBLZ
  45. Language                                 : English
  46. Default                                  : Yes
  47. Forced                                   : No

  48. Audio #2
  49. ID                                       : 3
  50. Format                                   : DTS
  51. Format/Info                              : Digital Theater Systems
  52. Format profile                           : MA / Core
  53. Codec ID                                 : A_DTS
  54. Duration                                 : 2 h 1 min
  55. Bit rate mode                            : Variable / Constant
  56. Bit rate                                 : 3 840 kb/s / 1 509 kb/s
  57. Channel(s)                               : 8 channels / 6 channels
  58. Channel positions                        : Front: L C R, Side: L R, Back: L R, LFE / Front: L C R, Side: L R, LFE
  59. Sampling rate                            : 48.0 kHz
  60. Frame rate                               : 93.750 FPS (512 SPF)
  61. Bit depth                                : 24 bits
  62. Compression mode                         : Lossless / Lossy
  63. Stream size                              : 3.24GB (13%)
  64. Title                                    : Knowing.2009.2160p.BluRay.x264.8bit.SDR.DTS-HD.MA.TrueHD.7.1.Atmos-SWTYBLZ
  65. Language                                 : English
  66. Default                                  : No
  67. Forced                                   : No

  68. Audio #3
  69. ID                                       : 4
  70. Format                                   : AC-3
  71. Format/Info                              : Audio Coding 3
  72. Codec ID                                 : A_AC3
  73. Duration                                 : 2 h 1 min
  74. Bit rate mode                            : Constant
  75. Bit rate                                 : 448 kb/s
  76. Channel(s)                               : 6 channels
  77. Channel positions                        : Front: L C R, Side: L R, LFE
  78. Sampling rate                            : 48.0 kHz
  79. Frame rate                               : 31.250 FPS (1536 SPF)
  80. Bit depth                                : 16 bits
  81. Compression mode                         : Lossy
  82. Delay relative to video                  : 1 ms
  83. Stream size                              : 389 MiB (2%)
  84. Title                                    : Knowing.2009.2160p.BluRay.x264.8bit.SDR.DTS-HD.MA.TrueHD.7.1.Atmos-SWTYBLZ
  85. Language                                 : English
  86. Service kind                             : Complete Main
  87. Default                                  : No
  88. Forced                                   : No

  89. Text #1
  90. ID                                       : 5
  91. Format                                   : UTF-8
  92. Codec ID                                 : S_TEXT/UTF8
  93. Codec ID/Info                            : UTF-8 Plain Text
  94. Duration                                 : 1 h 51 min
  95. Bit rate                                 : 47 b/s
  96. Count of elements                        : 971
  97. Stream size                              : 38.5 KiB (0%)
  98. Title                                    : English-SRT
  99. Language                                 : English
  100. Default                                  : Yes
  101. Forced                                   : No

  102. Text #2
  103. ID                                       : 6
  104. Format                                   : PGS
  105. Muxing mode                              : zlib
  106. Codec ID                                 : S_HDMV/PGS
  107. Codec ID/Info                            : Picture based subtitle format used on BDs/HD-DVDs
  108. Duration                                 : 1 h 52 min
  109. Bit rate                                 : 33.6 kb/s
  110. Count of elements                        : 2408
  111. Stream size                              : 27.1 MiB (0%)
  112. Title                                    : English-PGS
  113. Language                                 : English
  114. Default                                  : No
  115. Forced                                   : No

  116. Text #3
  117. ID                                       : 7
  118. Format                                   : PGS
  119. Muxing mode                              : zlib
  120. Codec ID                                 : S_HDMV/PGS
  121. Codec ID/Info                            : Picture based subtitle format used on BDs/HD-DVDs
  122. Duration                                 : 1 h 52 min
  123. Bit rate                                 : 26.6 kb/s
  124. Count of elements                        : 1948
  125. Stream size                              : 21.4 MiB (0%)
  126. Title                                    : Spanish-PGS
  127. Language                                 : Spanish
  128. Default                                  : No
  129. Forced                                   : No

  130. Text #4
  131. ID                                       : 8
  132. Format                                   : PGS
  133. Muxing mode                              : zlib
  134. Codec ID                                 : S_HDMV/PGS
  135. Codec ID/Info                            : Picture based subtitle format used on BDs/HD-DVDs
  136. Duration                                 : 1 h 10 min
  137. Bit rate                                 : 190 b/s
  138. Count of elements                        : 10
  139. Stream size                              : 97.6 KiB (0%)
  140. Title                                    : French-PGS
  141. Language                                 : French
  142. Default                                  : No
  143. Forced                                   : No

  144. Menu
  145. 00:00:00.000                             : en:Chapter 1
  146. 00:08:35.097                             : en:Chapter 2
  147. 00:15:20.210                             : en:Chapter 3
  148. 00:20:28.143                             : en:Chapter 4
  149. 00:29:06.828                             : en:Chapter 5
  150. 00:36:52.752                             : en:Chapter 6
  151. 00:43:17.011                             : en:Chapter 7
  152. 00:49:04.524                             : en:Chapter 8
  153. 00:56:09.741                             : en:Chapter 9
  154. 01:02:31.038                             : en:Chapter 10
  155. 01:08:11.545                             : en:Chapter 11
  156. 01:16:17.322                             : en:Chapter 12
  157. 01:22:58.098                             : en:Chapter 13
  158. 01:30:14.700                             : en:Chapter 14
  159. 01:39:33.509                             : en:Chapter 15
  160. 01:50:31.166                             : en:Chapter 16

复制代码
复制代码
195408ajivjjk0kv0fbiq9.jpg 195409k4g1hulg6nehndll.jpg 195410mb5yxybp25xvpl6a.jpg 195411dzb640p40ns65lws.jpg 195412o12irmwjh18jjr1w.jpg 195413fnnr7nwgk9q0ttr0.jpg







回复

使用道具 举报

蓝光币
135
发表于 2018-4-12 15:50:10 | 显示全部楼层
谢谢楼主分享!
回复 支持 反对

使用道具 举报

蓝光币
204
发表于 2018-4-12 22:30:29 | 显示全部楼层
强烈支持楼主ing……
回复 支持 反对

使用道具 举报

蓝光币
1328
发表于 2018-4-13 11:22:10 | 显示全部楼层
喜欢高清论坛,经常来逛逛!
回复 支持 反对

使用道具 举报

蓝光币
3073
发表于 2018-4-16 01:26:01 | 显示全部楼层
无回帖,不高清,这才是人道。
回复 支持 反对

使用道具 举报

蓝光币
272
发表于 2021-10-28 10:27:17 | 显示全部楼层
谢谢您的分享!谢谢!
回复 支持 反对

使用道具 举报

懒得打字嘛,点击右侧快捷回复 【右侧内容,后台自定义】
您需要登录后才可以回帖 登录 | 立即加入

本版积分规则

Archiver|小黑屋| 蓝光电影网 |网站地图

Copyright © 2021 Comsenz Inc. Powered by 蓝光电影网

蓝光电影网

本站内容由用户自主分享和转载自互联网,转载目的在于传递更多信息,并不代表本网赞同其观点和对其真实性负责。

如有侵权、违反国家法律政策行为,请联系我们,我们会第一时间及时清除和处理!

举报反馈邮箱:[email protected]

快速回复 返回顶部 返回列表