找回密码

蓝光电影网

查看: 2294|回复: 9

托斯卡 Tosca.2001.ITALIAN.2160p.BluRay.REMUX.HEVC.DTS-HD.MA.5.1-FGT 27.53GB

[复制链接]
蓝光币
623
发表于 2018-4-11 22:39:50 | 显示全部楼层 |阅读模式
201333vppn3amyy9pm0mww.jpg
◎译  名 托斯卡
◎片  名 Tosca
◎年  代 2001
◎产  地 意大利/法国/英国/德国
◎类  别 歌舞/剧情
◎语  言 意大利语
◎上映日期 2001-09-09
◎IMDb评分  7.4/10 from 349 users
◎IMDb链接  http://www.imdb.com/title/tt0240122/
◎豆瓣评分 8.7/10 from 56 users
◎豆瓣链接 https://movie.douban.com/subject/1308182/
◎片  长 126 分钟
◎导  演 伯努瓦·雅克 Beno?t Jacquot
◎主  演 安琪拉·葛姬 Angela Gheorghiu
      阿兰尼亚 Roberto Alagna
      Ruggero Raimondi

◎简  介

  普契尼的《托斯卡》可所以個廉價的煽情戲,一部糅合著愛情、政治與慾望的浅显劇-假如沒有他那扣民气弦的華麗樂章,與撕裂的神經末梢融和分歧的音符的話。把這樣一部膾炙生齿的歌劇搬上銀幕,也幾乎註定要令導演焦頭爛額。但是奇蹟出現了,班諾瓦.積高的《托斯卡》應是十多年來少數歌劇電影使人滿意的一部。積高以三種途徑(以華麗的攝影拍攝全劇的戲肉,十六毫米的黑白胶卷拍攝錄音過程,及以錄像俯瞰歷史現場)來閱讀普契尼的傑作,不单叫人一新线人,原劇的迫力更絲绝不減。原籍羅馬尼亞的女低音安琪拉.葛姬演繹的托斯卡,更是一次顛峰表演。
  Jacquot transposes Giacomo Puccini's famous opera to film in this stunningly filmed, sung and performed production featuring two of today's hottest opera stars. The films starts with black-and-white footage of the recording studio. He then brings the action forward on the sets, but makes frequent cuts to the studio. This avoids the sense of having filmed a staged production, and establishes an air of non-reality. Jacquot then adds a further visual dimension to the film by filming dazzling sequences of gardens and the night sky in Italy using a video camera. The two singers are also a couple in real life, a fact which adds emotional depth to their personas.
  Source: 26th HKIFF (2002)


  1. Video
  2. ID                                       : 1
  3. Format                                   : HEVC
  4. Format/Info                              : High Efficiency Video Coding
  5. Format profile                           : Main [email protected]@High
  6. Codec ID                                 : V_MPEGH/ISO/HEVC
  7. Duration                                 : 1 h 59 min
  8. Bit rate                                 : 26.5 Mb/s
  9. Width                                    : 3 840 pixels
  10. Height                                   : 2 160 pixels
  11. Display aspect ratio                     : 16:9
  12. Frame rate mode                          : Constant
  13. Frame rate                               : 25.000 FPS
  14. Color space                              : YUV
  15. Chroma subsampling                       : 4:2:0
  16. Bit depth                                : 10 bits
  17. Bits/(Pixel*Frame)                       : 0.128
  18. Stream size                              : 22.2GB (81%)
  19. Title                                    : Tosca.2001.ITALIAN.2160p.BluRay.REMUX.HEVC.DTS-HD.MA.5.1-FGT
  20. Writing library                          : x265 1.9+205-dcd65c5ff838:[Windows][GCC 4.8.2][64 bit] 10bit
  21. Encoding settings                        : wpp / ctu=64 / min-cu-size=8 / max-tu-size=32 / tu-intra-depth=1 / tu-inter-depth=1 / me=1 / subme=2 / merange=57 / no-rect / no-amp / max-merge=2 / temporal-mvp / no-early-skip / recursion-skip / rdpenalty=0 / no-tskip / no-tskip-fast / strong-intra-smoothing / no-lossless / no-cu-lossless / no-constrained-intra / no-fast-intra / no-open-gop / no-temporal-layers / interlace=0 / keyint=24 / min-keyint=1 / scenecut=40 / rc-lookahead=20 / lookahead-slices=8 / bframes=4 / bframe-bias=0 / b-adapt=2 / ref=3 / limit-refs=3 / no-limit-modes / weightp / no-weightb / aq-mode=1 / qg-size=32 / aq-strength=1.00 / cbqpoffs=0 / crqpoffs=0 / rd=1 / psy-rd=0.00 / rdoq-level=0 / psy-rdoq=0.00 / no-rd-refine / signhide / deblock=0:0 / sao / no-sao-non-deblock / no-b-pyramid / cutree / no-intra-refresh / rc=abr / bitrate=27000 / qcomp=0.60 / qpmin=0 / qpmax=51 / qpstep=4 / vbv-maxrate=40000 / vbv-bufsize=30000 / ipratio=1.40 / pbratio=1.30
  22. Default                                  : Yes
  23. Forced                                   : No
  24. Color range                              : Limited
  25. Color primaries                          : BT.709
  26. Transfer characteristics                 : BT.709
  27. Matrix coefficients                      : BT.709

  28. Audio #1
  29. ID                                       : 2
  30. Format                                   : DTS
  31. Format/Info                              : Digital Theater Systems
  32. Format profile                           : MA / Core
  33. Codec ID                                 : A_DTS
  34. Duration                                 : 1 h 59 min
  35. Bit rate mode                            : Variable / Constant
  36. Bit rate                                 : 4 041 kb/s / 1 509 kb/s
  37. Channel(s)                               : 6 channels
  38. Channel positions                        : Front: L C R, Side: L R, LFE
  39. Sampling rate                            : 48.0 kHz
  40. Frame rate                               : 93.750 FPS (512 SPF)
  41. Bit depth                                : 24 bits
  42. Compression mode                         : Lossless / Lossy
  43. Stream size                              : 3.38GB (12%)
  44. Title                                    : Tosca.2001.ITALIAN.2160p.BluRay.REMUX.HEVC.DTS-HD.MA.5.1-FGT
  45. Language                                 : Italian
  46. Default                                  : Yes
  47. Forced                                   : No

  48. Audio #2
  49. ID                                       : 3
  50. Format                                   : PCM
  51. Format settings                          : Little / Signed
  52. Codec ID                                 : A_PCM/INT/LIT
  53. Duration                                 : 1 h 59 min
  54. Bit rate mode                            : Constant
  55. Bit rate                                 : 2 304 kb/s
  56. Channel(s)                               : 2 channels
  57. Sampling rate                            : 48.0 kHz
  58. Frame rate                               : 200.000 FPS (240 SPF)
  59. Bit depth                                : 24 bits
  60. Stream size                              : 1.93GB (7%)
  61. Title                                    : Tosca.2001.ITALIAN.2160p.BluRay.REMUX.HEVC.DTS-HD.MA.5.1-FGT
  62. Language                                 : Italian
  63. Default                                  : No
  64. Forced                                   : No

  65. Text #1
  66. ID                                       : 4
  67. Format                                   : PGS
  68. Muxing mode                              : zlib
  69. Codec ID                                 : S_HDMV/PGS
  70. Codec ID/Info                            : Picture based subtitle format used on BDs/HD-DVDs
  71. Duration                                 : 1 h 53 min
  72. Bit rate                                 : 17.2 kb/s
  73. Count of elements                        : 1814
  74. Stream size                              : 14.0 MiB (0%)
  75. Title                                    : English-PGS
  76. Language                                 : English
  77. Default                                  : Yes
  78. Forced                                   : No

  79. Text #2
  80. ID                                       : 5
  81. Format                                   : PGS
  82. Muxing mode                              : zlib
  83. Codec ID                                 : S_HDMV/PGS
  84. Codec ID/Info                            : Picture based subtitle format used on BDs/HD-DVDs
  85. Duration                                 : 1 h 53 min
  86. Bit rate                                 : 15.3 kb/s
  87. Count of elements                        : 1824
  88. Stream size                              : 12.4 MiB (0%)
  89. Title                                    : Italian-PGS
  90. Language                                 : Italian
  91. Default                                  : No
  92. Forced                                   : No

  93. Text #3
  94. ID                                       : 6
  95. Format                                   : PGS
  96. Muxing mode                              : zlib
  97. Codec ID                                 : S_HDMV/PGS
  98. Codec ID/Info                            : Picture based subtitle format used on BDs/HD-DVDs
  99. Duration                                 : 1 h 53 min
  100. Bit rate                                 : 18.7 kb/s
  101. Count of elements                        : 1814
  102. Stream size                              : 15.2 MiB (0%)
  103. Title                                    : German-PGS
  104. Language                                 : German
  105. Default                                  : No
  106. Forced                                   : No

  107. Text #4
  108. ID                                       : 7
  109. Format                                   : PGS
  110. Muxing mode                              : zlib
  111. Codec ID                                 : S_HDMV/PGS
  112. Codec ID/Info                            : Picture based subtitle format used on BDs/HD-DVDs
  113. Duration                                 : 1 h 53 min
  114. Bit rate                                 : 17.4 kb/s
  115. Count of elements                        : 1814
  116. Stream size                              : 14.2 MiB (0%)
  117. Title                                    : French-PGS
  118. Language                                 : French
  119. Default                                  : No
  120. Forced                                   : No

  121. Text #5
  122. ID                                       : 8
  123. Format                                   : PGS
  124. Muxing mode                              : zlib
  125. Codec ID                                 : S_HDMV/PGS
  126. Codec ID/Info                            : Picture based subtitle format used on BDs/HD-DVDs
  127. Duration                                 : 1 h 53 min
  128. Bit rate                                 : 16.8 kb/s
  129. Count of elements                        : 1814
  130. Stream size                              : 13.7 MiB (0%)
  131. Title                                    : Spanish-PGS
  132. Language                                 : Spanish
  133. Default                                  : No
  134. Forced                                   : No

  135. Text #6
  136. ID                                       : 9
  137. Format                                   : PGS
  138. Muxing mode                              : zlib
  139. Codec ID                                 : S_HDMV/PGS
  140. Codec ID/Info                            : Picture based subtitle format used on BDs/HD-DVDs
  141. Duration                                 : 1 h 53 min
  142. Bit rate                                 : 17.3 kb/s
  143. Count of elements                        : 1814
  144. Stream size                              : 14.1 MiB (0%)
  145. Title                                    : Korean-PGS
  146. Language                                 : Korean
  147. Default                                  : No
  148. Forced                                   : No

  149. Text #7
  150. ID                                       : 10
  151. Format                                   : PGS
  152. Muxing mode                              : zlib
  153. Codec ID                                 : S_HDMV/PGS
  154. Codec ID/Info                            : Picture based subtitle format used on BDs/HD-DVDs
  155. Duration                                 : 1 h 53 min
  156. Bit rate                                 : 17.1 kb/s
  157. Count of elements                        : 1822
  158. Stream size                              : 13.9 MiB (0%)
  159. Title                                    : Japanese-PGS
  160. Language                                 : Japanese
  161. Default                                  : No
  162. Forced                                   : No

  163. Menu
  164. 00:00:00.000                             : en:Chapter 1
  165. 00:00:31.000                             : en:Chapter 2
  166. 00:02:47.720                             : en:Chapter 3
  167. 00:05:04.000                             : en:Chapter 4
  168. 00:06:11.000                             : en:Chapter 5
  169. 00:10:02.720                             : en:Chapter 6
  170. 00:11:47.000                             : en:Chapter 7
  171. 00:13:44.000                             : en:Chapter 8
  172. 00:14:43.000                             : en:Chapter 9
  173. 00:17:15.000                             : en:Chapter 10
  174. 00:19:05.000                             : en:Chapter 11
  175. 00:20:46.000                             : en:Chapter 12
  176. 00:24:44.000                             : en:Chapter 13
  177. 00:28:17.280                             : en:Chapter 14
  178. 00:29:58.400                             : en:Chapter 15
  179. 00:33:34.000                             : en:Chapter 16
  180. 00:36:44.520                             : en:Chapter 17
  181. 00:38:48.000                             : en:Chapter 18
  182. 00:40:55.000                             : en:Chapter 19
  183. 00:45:27.000                             : en:Chapter 20
  184. 00:46:53.000                             : en:Chapter 21
  185. 00:48:43.000                             : en:Chapter 22
  186. 00:49:58.000                             : en:Chapter 23
  187. 00:51:07.000                             : en:Chapter 24
  188. 00:53:33.600                             : en:Chapter 25
  189. 00:55:22.000                             : en:Chapter 26
  190. 01:00:39.000                             : en:Chapter 27
  191. 01:04:12.080                             : en:Chapter 28
  192. 01:05:42.000                             : en:Chapter 29
  193. 01:06:59.000                             : en:Chapter 30
  194. 01:08:24.000                             : en:Chapter 31
  195. 01:12:58.000                             : en:Chapter 32
  196. 01:16:28.000                             : en:Chapter 33
  197. 01:20:09.000                             : en:Chapter 34
  198. 01:22:20.000                             : en:Chapter 35
  199. 01:27:30.000                             : en:Chapter 36
  200. 01:29:17.000                             : en:Chapter 37
  201. 01:30:47.200                             : en:Chapter 38
  202. 01:33:20.000                             : en:Chapter 39
  203. 01:35:07.000                             : en:Chapter 40
  204. 01:36:49.000                             : en:Chapter 41
  205. 01:37:57.000                             : en:Chapter 42
  206. 01:41:05.720                             : en:Chapter 43
  207. 01:43:40.000                             : en:Chapter 44
  208. 01:45:20.000                             : en:Chapter 45
  209. 01:49:03.000                             : en:Chapter 46
  210. 01:51:09.000                             : en:Chapter 47
  211. 01:51:49.000                             : en:Chapter 48
  212. 01:54:04.720                             : en:Chapter 49
  213. 01:55:23.000                             : en:Chapter 50



复制代码
复制代码
201334bwgoczcjkpjkh7yn.jpg 201334q0f3gg0um8tq7fmo.jpg 201335vm1d1ky1e4lj1g11.jpg







回复

使用道具 举报

蓝光币
189
发表于 2018-4-13 14:33:22 | 显示全部楼层
强烈支持楼主ing……
回复 支持 反对

使用道具 举报

蓝光币
2
发表于 2018-4-15 20:27:39 | 显示全部楼层
厉害啊 楼主威武
回复 支持 反对

使用道具 举报

懒得打字嘛,点击右侧快捷回复 【右侧内容,后台自定义】
您需要登录后才可以回帖 登录 | 立即加入

本版积分规则

Archiver|小黑屋| 蓝光电影网 |网站地图

Copyright © 2021 Comsenz Inc. Powered by 蓝光电影网

蓝光电影网

本站内容由用户自主分享和转载自互联网,转载目的在于传递更多信息,并不代表本网赞同其观点和对其真实性负责。

如有侵权、违反国家法律政策行为,请联系我们,我们会第一时间及时清除和处理!

举报反馈邮箱:[email protected]

快速回复 返回顶部 返回列表