找回密码

蓝光电影网

查看: 1160|回复: 4

[动画] 姆明与冬日仙境/姆明大电影:冬日乐园 Moomins.and.the.Winter.Wonderland.2017.CHINESE.1080p.BluRay.REMUX.AVC.TrueHD.5.1-FGT 19.78GB

[复制链接]
蓝光币
623
发表于 2018-4-11 22:43:32 | 显示全部楼层 |阅读模式
204031nnrne633iorceeew.jpg
◎译  名 姆明与冬季仙境/姆明大电影:冬季乐园/姆明谷和冬季仙境
◎片  名 Muumien joulu
◎年  代 2017
◎产  地 芬兰/波兰
◎类  别 动画
◎语  言 芬兰语/英语
◎上映日期 2017-12-01(芬兰)
◎IMDb评分  5.2/10 from 106 users
◎IMDb链接  http://www.imdb.com/title/tt6315872/
◎豆瓣评分 5.9/10 from 94 users
◎豆瓣链接 https://movie.douban.com/subject/27125691/
◎片  长 82分钟
◎导  演 Ira Carpelan / Jakub Wronski
◎主  演 比尔·斯卡斯加德 Bill Skarsg?rd
      斯特兰·斯卡斯加德 Stellan Skarsg?rd
      艾丽西亚·维坎德 Alicia Vikander

◎简  介

  姆明谷今年的冬季似乎不承平常,所以姆明决议动身大冒险,而不是如常去蛰伏。冒险之旅中姆明发现希奇的生物在黑暗隆冬中雪堆奔驰,一切新的暗示出现意味着一位怪僻的客人行未到临…


  1. Video
  2. ID                                       : 1
  3. Format                                   : AVC
  4. Format/Info                              : Advanced Video Codec
  5. Format profile                           : [email protected]
  6. Format settings                          : CABAC / 4 Ref Frames
  7. Format settings, CABAC                   : Yes
  8. Format settings, ReFrames                : 4 frames
  9. Codec ID                                 : V_MPEG4/ISO/AVC
  10. Duration                                 : 1 h 22 min
  11. Bit rate mode                            : Variable
  12. Bit rate                                 : 28.0 Mb/s
  13. Maximum bit rate                         : 35.0 Mb/s
  14. Width                                    : 1 920 pixels
  15. Height                                   : 1 080 pixels
  16. Display aspect ratio                     : 16:9
  17. Frame rate mode                          : Constant
  18. Frame rate                               : 24.000 FPS
  19. Standard                                 : NTSC
  20. Color space                              : YUV
  21. Chroma subsampling                       : 4:2:0
  22. Bit depth                                : 8 bits
  23. Scan type                                : Progressive
  24. Bits/(Pixel*Frame)                       : 0.562
  25. Stream size                              : 16.1GB (82%)
  26. Title                                    : Moomins.and.the.Winter.Wonderland.2017.CHINESE.1080p.BluRay.REMUX.AVC.TrueHD.5.1-FGT
  27. Language                                 : English
  28. Default                                  : No
  29. Forced                                   : No
  30. Color range                              : Limited
  31. Color primaries                          : BT.709
  32. Transfer characteristics                 : BT.709
  33. Matrix coefficients                      : BT.709

  34. Audio #1
  35. ID                                       : 2
  36. Format                                   : TrueHD
  37. Codec ID                                 : A_TRUEHD
  38. Duration                                 : 1 h 22 min
  39. Bit rate mode                            : Variable
  40. Bit rate                                 : 2 819 kb/s
  41. Maximum bit rate                         : 4 080 kb/s
  42. Channel(s)                               : 6 channels
  43. Channel positions                        : Front: L C R, Side: L R, LFE
  44. Sampling rate                            : 96.0 kHz
  45. Frame rate                               : 2 400.000 FPS (40 SPF)
  46. Compression mode                         : Lossless
  47. Stream size                              : 1.63GB (8%)
  48. Title                                    : Moomins.and.the.Winter.Wonderland.2017.CHINESE.1080p.BluRay.REMUX.AVC.TrueHD.5.1-FGT
  49. Language                                 : Chinese
  50. Default                                  : Yes
  51. Forced                                   : No

  52. Audio #2
  53. ID                                       : 3
  54. Format                                   : AC-3
  55. Format/Info                              : Audio Coding 3
  56. Codec ID                                 : A_AC3
  57. Duration                                 : 1 h 22 min
  58. Bit rate mode                            : Constant
  59. Bit rate                                 : 640 kb/s
  60. Channel(s)                               : 6 channels
  61. Channel positions                        : Front: L C R, Side: L R, LFE
  62. Sampling rate                            : 48.0 kHz
  63. Frame rate                               : 31.250 FPS (1536 SPF)
  64. Bit depth                                : 16 bits
  65. Compression mode                         : Lossy
  66. Stream size                              : 378 MiB (2%)
  67. Title                                    : Moomins.and.the.Winter.Wonderland.2017.CHINESE.1080p.BluRay.REMUX.AVC.TrueHD.5.1-FGT
  68. Language                                 : Chinese
  69. Service kind                             : Complete Main
  70. Default                                  : No
  71. Forced                                   : No

  72. Audio #3
  73. ID                                       : 4
  74. Format                                   : TrueHD
  75. Codec ID                                 : A_TRUEHD
  76. Duration                                 : 1 h 22 min
  77. Bit rate mode                            : Variable
  78. Bit rate                                 : 2 017 kb/s
  79. Maximum bit rate                         : 2 940 kb/s
  80. Channel(s)                               : 6 channels
  81. Channel positions                        : Front: L C R, Side: L R, LFE
  82. Sampling rate                            : 96.0 kHz
  83. Frame rate                               : 2 400.000 FPS (40 SPF)
  84. Compression mode                         : Lossless
  85. Stream size                              : 1.16GB (6%)
  86. Title                                    : Moomins.and.the.Winter.Wonderland.2017.CHINESE.1080p.BluRay.REMUX.AVC.TrueHD.5.1-FGT
  87. Language                                 : English
  88. Default                                  : No
  89. Forced                                   : No

  90. Audio #4
  91. ID                                       : 5
  92. Format                                   : AC-3
  93. Format/Info                              : Audio Coding 3
  94. Codec ID                                 : A_AC3
  95. Duration                                 : 1 h 22 min
  96. Bit rate mode                            : Constant
  97. Bit rate                                 : 640 kb/s
  98. Channel(s)                               : 6 channels
  99. Channel positions                        : Front: L C R, Side: L R, LFE
  100. Sampling rate                            : 48.0 kHz
  101. Frame rate                               : 31.250 FPS (1536 SPF)
  102. Bit depth                                : 16 bits
  103. Compression mode                         : Lossy
  104. Stream size                              : 378 MiB (2%)
  105. Title                                    : Moomins.and.the.Winter.Wonderland.2017.CHINESE.1080p.BluRay.REMUX.AVC.TrueHD.5.1-FGT
  106. Language                                 : English
  107. Service kind                             : Complete Main
  108. Default                                  : No
  109. Forced                                   : No

  110. Text #1
  111. ID                                       : 6
  112. Format                                   : PGS
  113. Muxing mode                              : zlib
  114. Codec ID                                 : S_HDMV/PGS
  115. Codec ID/Info                            : Picture based subtitle format used on BDs/HD-DVDs
  116. Duration                                 : 1 h 21 min
  117. Bit rate                                 : 53.0 kb/s
  118. Count of elements                        : 1915
  119. Stream size                              : 30.9 MiB (0%)
  120. Title                                    : English-PGS
  121. Language                                 : English
  122. Default                                  : Yes
  123. Forced                                   : No

  124. Text #2
  125. ID                                       : 7
  126. Format                                   : PGS
  127. Muxing mode                              : zlib
  128. Codec ID                                 : S_HDMV/PGS
  129. Codec ID/Info                            : Picture based subtitle format used on BDs/HD-DVDs
  130. Duration                                 : 1 h 21 min
  131. Bit rate                                 : 36.2 kb/s
  132. Count of elements                        : 1917
  133. Stream size                              : 21.2 MiB (0%)
  134. Title                                    : Chinese-PGS
  135. Language                                 : Chinese
  136. Default                                  : No
  137. Forced                                   : No

  138. Text #3
  139. ID                                       : 8
  140. Format                                   : PGS
  141. Muxing mode                              : zlib
  142. Codec ID                                 : S_HDMV/PGS
  143. Codec ID/Info                            : Picture based subtitle format used on BDs/HD-DVDs
  144. Duration                                 : 1 h 21 min
  145. Bit rate                                 : 35.6 kb/s
  146. Count of elements                        : 1917
  147. Stream size                              : 20.8 MiB (0%)
  148. Title                                    : Chinese-PGS
  149. Language                                 : Chinese
  150. Default                                  : No
  151. Forced                                   : No

  152. Menu
  153. 00:00:00.000                             : en:Chapter 01
  154. 00:07:06.333                             : en:Chapter 02
  155. 00:13:09.416                             : en:Chapter 03
  156. 00:21:32.916                             : en:Chapter 04
  157. 00:26:22.291                             : en:Chapter 05
  158. 00:35:26.708                             : en:Chapter 06
  159. 00:41:54.250                             : en:Chapter 07
  160. 00:49:08.541                             : en:Chapter 08
  161. 00:54:11.333                             : en:Chapter 09
  162. 01:01:05.791                             : en:Chapter 10
  163. 01:07:37.041                             : en:Chapter 11
  164. 01:14:52.000                             : en:Chapter 12



复制代码
复制代码
204032onst45334qy8005y.jpg 204033a2abp72a3baabbwr.jpg 204033t6tqczku80kiccid.jpg







回复

使用道具 举报

蓝光币
143
发表于 2018-4-12 10:52:34 | 显示全部楼层

谢谢分享!楼主威武!
回复 支持 反对

使用道具 举报

懒得打字嘛,点击右侧快捷回复 【右侧内容,后台自定义】
您需要登录后才可以回帖 登录 | 立即加入

本版积分规则

Archiver|小黑屋| 蓝光电影网 |网站地图

Copyright © 2021 Comsenz Inc. Powered by 蓝光电影网

蓝光电影网

本站内容由用户自主分享和转载自互联网,转载目的在于传递更多信息,并不代表本网赞同其观点和对其真实性负责。

如有侵权、违反国家法律政策行为,请联系我们,我们会第一时间及时清除和处理!

举报反馈邮箱:[email protected]

快速回复 返回顶部 返回列表