找回密码

蓝光电影网

查看: 920|回复: 3

[剧情] TheGreatBuddha+ The.Great.Buddha.Plus.2017.CHINESE.1080p.BluRay.REMUX.AVC.DTS-HD.MA.5.1-FGT 19.26GB

[复制链接]
蓝光币
623
发表于 2018-4-11 22:43:59 | 显示全部楼层 |阅读模式
204119cibqpqsq155r8brp.jpg
◎译  名 TheGreatBuddha+
◎片  名 大佛普拉斯
◎年  代 2017
◎产  地 台湾
◎类  别 剧情/笑剧
◎语  言 闽南语/汉语普通话
◎上映日期 2017-06-29(台北电影节)/2017-10-13(台湾)
◎豆瓣评分 8.6/10 from 48,900 users
◎豆瓣链接 https://movie.douban.com/subject/27059130/
◎片  长 102分钟
◎导  演 黄信尧 Hsin-yao Huang
◎主  演 陈竹昇 Chu-sheng Chen
      庄益增 Yizeng Zhuang
      戴立忍 Leon Dai
      纳豆 Na Dow
      张少怀 Shao-Huai Chang
      丁国琳 Guolin Ding
      雷婕熙 J.C Lei
      林美秀 Mei-shiu Lin
      陈以文 Yiwen Chen
      郑宇彤 Evelyn Yu-Tong Cheng
      梁赫群 Vincent Liang
      游安顺 An-shun Yu
      李永丰 Yung-Feng Lee
      朱约信 Yueh-hsin Chu
      小亮哥 Peifang Wang
      脱线 Bingnan Chen

◎简  介

  菜埔(庄益增 饰)是一家雕塑厂的夜间保安,家中有一位沉痾的老母亲需要照顾。肚财(陈竹昇 饰)是菜埔唯一的朋友,菜埔经常在值夜班的时辰把肚财叫过来和他作伴。一天,两人突发奇想决议看一看菜埔的老板黄启文(戴立忍 饰)的行车记录仪里记录了哪些影象,希望历来风骚的老板可以进献出一些出色的片断以解两个单身汉子心里里的孤单之苦。
  行车记录仪所记录的影象公然没有让菜埔和肚财失望,但与此同时,两人也发现了黄启文的很多不成告人的奥秘。现实上,菜埔和肚财的一举一动皆没有逃过黄启文的眼睛,为了保住自己的职位和名声,他决议采纳一些需要的行动。

◎获奖情况

  第54届台北金马影展  (2017)
  金马奖 最好剧情片(提名)
  金马奖 最好男配角(提名) 戴立忍
  金马奖 最好改编剧本 黄信尧
  金马奖 最好新导演 黄信尧
  金马奖 最好摄影 钟孟宏
  金马奖 最好美术设想(提名) 赵思豪
  金马奖 最好原创配乐 林生祥
  金马奖 最好原创歌曲 林生祥
  金马奖 最好剪辑(提名) 赖秀雄
  金马奖 最好音效(提名) 吴书瑶 / 杜笃之

  第37届香港电影金像奖  (2018)
  最好两岸华语电影(提名)

  第42届多伦多国际电影节  (2017)
  亚洲电影促进同盟奖 黄信尧

  第12届亚洲电影大奖  (2018)
  最好新导演(提名) 黄信尧
  最好摄影(提名) 钟孟宏
  最好原创音乐(提名) 林生祥
  最好声响 吴书瑶 / 杜笃之

  第19届台北电影节  (2017)
  台北电影奖 百万首奖
  台北电影奖 最好剧情长片
  台北电影奖 最好剪辑奖 赖秀雄
  台北电影奖 最好音乐奖 林生祥
  台北电影奖 最好美术设想 赵思豪

  第4届豆瓣电影年度榜单  (2017)
  年度华语自力佳作(提名)


  1. Video
  2. ID                                       : 1
  3. Format                                   : AVC
  4. Format/Info                              : Advanced Video Codec
  5. Format profile                           : [email protected]
  6. Format settings                          : CABAC / 4 Ref Frames
  7. Format settings, CABAC                   : Yes
  8. Format settings, ReFrames                : 4 frames
  9. Codec ID                                 : V_MPEG4/ISO/AVC
  10. Duration                                 : 1 h 43 min
  11. Bit rate mode                            : Variable
  12. Bit rate                                 : 23.0 Mb/s
  13. Maximum bit rate                         : 35.0 Mb/s
  14. Width                                    : 1 920 pixels
  15. Height                                   : 1 080 pixels
  16. Display aspect ratio                     : 16:9
  17. Frame rate mode                          : Constant
  18. Frame rate                               : 24.000 FPS
  19. Standard                                 : NTSC
  20. Color space                              : YUV
  21. Chroma subsampling                       : 4:2:0
  22. Bit depth                                : 8 bits
  23. Scan type                                : Progressive
  24. Bits/(Pixel*Frame)                       : 0.462
  25. Stream size                              : 16.6GB (86%)
  26. Title                                    : The.Great.Buddha.Plus.2017.CHINESE.1080p.BluRay.REMUX.AVC.DTS-HD.MA.5.1-FGT
  27. Language                                 : English
  28. Default                                  : No
  29. Forced                                   : No
  30. Color range                              : Limited
  31. Color primaries                          : BT.709
  32. Transfer characteristics                 : BT.709
  33. Matrix coefficients                      : BT.709

  34. Audio #1
  35. ID                                       : 2
  36. Format                                   : DTS
  37. Format/Info                              : Digital Theater Systems
  38. Format profile                           : MA / Core
  39. Codec ID                                 : A_DTS
  40. Duration                                 : 1 h 43 min
  41. Bit rate mode                            : Variable / Constant
  42. Bit rate                                 : 1 920 kb/s / 1 509 kb/s
  43. Channel(s)                               : 6 channels
  44. Channel positions                        : Front: L C R, Side: L R, LFE
  45. Sampling rate                            : 48.0 kHz
  46. Frame rate                               : 93.750 FPS (512 SPF)
  47. Bit depth                                : 16 bits
  48. Compression mode                         : Lossless / Lossy
  49. Stream size                              : 1.37GB (7%)
  50. Title                                    : The.Great.Buddha.Plus.2017.CHINESE.1080p.BluRay.REMUX.AVC.DTS-HD.MA.5.1-FGT
  51. Language                                 : Chinese
  52. Default                                  : Yes
  53. Forced                                   : No

  54. Audio #2
  55. ID                                       : 3
  56. Format                                   : DTS
  57. Format/Info                              : Digital Theater Systems
  58. Codec ID                                 : A_DTS
  59. Duration                                 : 1 h 43 min
  60. Bit rate mode                            : Constant
  61. Bit rate                                 : 1 509 kb/s
  62. Channel(s)                               : 6 channels
  63. Channel positions                        : Front: L C R, Side: L R, LFE
  64. Sampling rate                            : 48.0 kHz
  65. Frame rate                               : 93.750 FPS (512 SPF)
  66. Bit depth                                : 16 bits
  67. Compression mode                         : Lossy
  68. Stream size                              : 1.09GB (6%)
  69. Title                                    : The.Great.Buddha.Plus.2017.CHINESE.1080p.BluRay.REMUX.AVC.DTS-HD.MA.5.1-FGT
  70. Language                                 : Chinese
  71. Default                                  : No
  72. Forced                                   : No

  73. Audio #3
  74. ID                                       : 4
  75. Format                                   : AC-3
  76. Format/Info                              : Audio Coding 3
  77. Codec ID                                 : A_AC3
  78. Duration                                 : 1 h 43 min
  79. Bit rate mode                            : Constant
  80. Bit rate                                 : 224 kb/s
  81. Channel(s)                               : 2 channels
  82. Channel positions                        : Front: L R
  83. Sampling rate                            : 48.0 kHz
  84. Frame rate                               : 31.250 FPS (1536 SPF)
  85. Bit depth                                : 16 bits
  86. Compression mode                         : Lossy
  87. Stream size                              : 165 MiB (1%)
  88. Title                                    : The.Great.Buddha.Plus.2017.CHINESE.1080p.BluRay.REMUX.AVC.DTS-HD.MA.5.1-FGT
  89. Language                                 : Chinese
  90. Service kind                             : Complete Main
  91. Default                                  : No
  92. Forced                                   : No

  93. Text #1
  94. ID                                       : 5
  95. Format                                   : PGS
  96. Muxing mode                              : zlib
  97. Codec ID                                 : S_HDMV/PGS
  98. Codec ID/Info                            : Picture based subtitle format used on BDs/HD-DVDs
  99. Duration                                 : 1 h 34 min
  100. Bit rate                                 : 64.8 kb/s
  101. Count of elements                        : 3224
  102. Stream size                              : 44.0 MiB (0%)
  103. Title                                    : English-PGS
  104. Language                                 : English
  105. Default                                  : Yes
  106. Forced                                   : No

  107. Text #2
  108. ID                                       : 6
  109. Format                                   : PGS
  110. Muxing mode                              : zlib
  111. Codec ID                                 : S_HDMV/PGS
  112. Codec ID/Info                            : Picture based subtitle format used on BDs/HD-DVDs
  113. Duration                                 : 1 h 34 min
  114. Bit rate                                 : 51.4 kb/s
  115. Count of elements                        : 3226
  116. Stream size                              : 34.9 MiB (0%)
  117. Title                                    : Chinese-PGS
  118. Language                                 : Chinese
  119. Default                                  : No
  120. Forced                                   : No

  121. Menu
  122. 00:00:00.000                             : en:Chapter 01
  123. 00:14:25.958                             : en:Chapter 02
  124. 00:25:58.166                             : en:Chapter 03
  125. 00:38:31.458                             : en:Chapter 04
  126. 00:50:44.833                             : en:Chapter 05
  127. 00:56:48.333                             : en:Chapter 06
  128. 01:05:01.375                             : en:Chapter 07
  129. 01:12:41.625                             : en:Chapter 08
  130. 01:17:56.291                             : en:Chapter 09
  131. 01:22:56.750                             : en:Chapter 10
  132. 01:29:54.458                             : en:Chapter 11
  133. 01:35:37.125                             : en:Chapter 12



复制代码
复制代码
204120mvjhpbyjzpjrhipm.jpg 204120kp2wn4ul3arn34nd.jpg 204121r5mgiofbzuuuu1uf.jpg







回复

使用道具 举报

蓝光币
143
发表于 2018-4-12 10:50:24 | 显示全部楼层
谢谢分享!楼主威武!
回复 支持 反对

使用道具 举报

蓝光币
57
发表于 2018-4-13 10:36:59 | 显示全部楼层
我要金豆豆~~~~
回复 支持 反对

使用道具 举报

懒得打字嘛,点击右侧快捷回复 【右侧内容,后台自定义】
您需要登录后才可以回帖 登录 | 立即加入

本版积分规则

Archiver|小黑屋| 蓝光电影网 |网站地图

Copyright © 2021 Comsenz Inc. Powered by 蓝光电影网

蓝光电影网

本站内容由用户自主分享和转载自互联网,转载目的在于传递更多信息,并不代表本网赞同其观点和对其真实性负责。

如有侵权、违反国家法律政策行为,请联系我们,我们会第一时间及时清除和处理!

举报反馈邮箱:[email protected]

快速回复 返回顶部 返回列表