找回密码

蓝光电影网

查看: 1158|回复: 2

[恐怖] 精神病人 The.Psychopath.1966.1080p.BluRay.x264.DTS-FGT 7.50GB

[复制链接]
蓝光币
623
发表于 2018-4-12 22:09:44 | 显示全部楼层 |阅读模式
182808j76t7k8mm5sk67m8.jpg
◎译  名 神经病人
◎片  名 The Psychopath
◎年  代 1966
◎产  地 英国
◎类  别 可骇/悬疑
◎语  言 英语
◎上映日期 1966-08-26
◎IMDb评分  5.9/10 from 498 users
◎IMDb链接  http://www.imdb.com/title/tt0060866/
◎豆瓣评分 /10 from 0 users
◎豆瓣链接 https://movie.douban.com/subject/3182995/
◎片  长 USA: 82 分钟
◎导  演 弗雷迪·弗朗西斯 Freddie Francis
◎主  演 Patrick Wymark
      Margaret Johnston
      John Standing
      Alexander Knox

◎简  介

  None


  1. Video
  2. ID                                       : 1
  3. Format                                   : AVC
  4. Format/Info                              : Advanced Video Codec
  5. Format profile                           : [email protected]
  6. Format settings                          : CABAC / 4 Ref Frames
  7. Format settings, CABAC                   : Yes
  8. Format settings, ReFrames                : 4 frames
  9. Codec ID                                 : V_MPEG4/ISO/AVC
  10. Duration                                 : 1 h 22 min
  11. Bit rate                                 : 11.5 Mb/s
  12. Width                                    : 1 920 pixels
  13. Height                                   : 784 pixels
  14. Display aspect ratio                     : 2.40:1
  15. Frame rate mode                          : Constant
  16. Frame rate                               : 23.976 (24000/1001) FPS
  17. Color space                              : YUV
  18. Chroma subsampling                       : 4:2:0
  19. Bit depth                                : 8 bits
  20. Scan type                                : Progressive
  21. Bits/(Pixel*Frame)                       : 0.319
  22. Stream size                              : 6.62GB (88%)
  23. Title                                    : The.Psychopath.1966.1080p.BluRay.x264.DTS-FGT
  24. Writing library                          : x264 core 148 r2795M aaa9aa8
  25. Encoding settings                        : cabac=1 / ref=4 / deblock=1:-2:-2 / analyse=0x3:0x113 / me=umh / subme=9 / psy=1 / psy_rd=1.00:0.15 / mixed_ref=1 / me_range=16 / chroma_me=1 / trellis=2 / 8x8dct=1 / cqm=0 / deadzone=21,11 / fast_pskip=1 / chroma_qp_offset=-3 / threads=24 / lookahead_threads=3 / sliced_threads=0 / nr=0 / decimate=1 / interlaced=0 / bluray_compat=0 / constrained_intra=0 / bframes=3 / b_pyramid=2 / b_adapt=2 / b_bias=0 / direct=3 / weightb=1 / open_gop=0 / weightp=2 / keyint=250 / keyint_min=25 / scenecut=40 / intra_refresh=0 / rc_lookahead=50 / rc=abr / mbtree=1 / bitrate=11500 / ratetol=1.0 / qcomp=0.60 / qpmin=0 / qpmax=69 / qpstep=4 / vbv_maxrate=31250 / vbv_bufsize=31250 / nal_hrd=none / filler=0 / ip_ratio=1.40 / aq=1:1.00
  26. Language                                 : English
  27. Default                                  : Yes
  28. Forced                                   : No

  29. Audio
  30. ID                                       : 2
  31. Format                                   : DTS
  32. Format/Info                              : Digital Theater Systems
  33. Codec ID                                 : A_DTS
  34. Duration                                 : 1 h 22 min
  35. Bit rate mode                            : Constant
  36. Bit rate                                 : 1 509 kb/s
  37. Channel(s)                               : 2 channels
  38. Channel positions                        : Front: L R
  39. Sampling rate                            : 48.0 kHz
  40. Frame rate                               : 93.750 FPS (512 SPF)
  41. Bit depth                                : 16 bits
  42. Compression mode                         : Lossy
  43. Stream size                              : 896 MiB (12%)
  44. Title                                    : The.Psychopath.1966.1080p.BluRay.x264.DTS-FGT
  45. Language                                 : English
  46. Default                                  : Yes
  47. Forced                                   : No

  48. Text
  49. ID                                       : 3
  50. Format                                   : UTF-8
  51. Codec ID                                 : S_TEXT/UTF8
  52. Codec ID/Info                            : UTF-8 Plain Text
  53. Duration                                 : 1 h 17 min
  54. Bit rate                                 : 47 b/s
  55. Count of elements                        : 945
  56. Stream size                              : 27.0 KiB (0%)
  57. Language                                 : English
  58. Default                                  : Yes
  59. Forced                                   : No

  60. Menu
  61. 00:00:00.000                             : en:Chapter 00
  62. 00:12:30.166                             : en:Chapter 01
  63. 00:22:54.706                             : en:Chapter 02
  64. 00:31:33.391                             : en:Chapter 03
  65. 00:42:17.117                             : en:Chapter 04
  66. 00:53:43.053                             : en:Chapter 05
  67. 01:01:56.337                             : en:Chapter 06
  68. 01:13:22.439                             : en:Chapter 07



复制代码
复制代码
182809dhgspmmzu0gbmnmn.jpg 182809db2ahq2i3ft22hq3.jpg 182810tm6yajo2spa73mm4.jpg







回复

使用道具 举报

蓝光币
1240
发表于 2018-4-13 16:37:02 | 显示全部楼层

楼主发片辛苦了,万分感谢,好人一生平安!
回复 支持 反对

使用道具 举报

懒得打字嘛,点击右侧快捷回复 【右侧内容,后台自定义】
您需要登录后才可以回帖 登录 | 立即加入

本版积分规则

Archiver|小黑屋| 蓝光电影网 |网站地图

Copyright © 2021 Comsenz Inc. Powered by 蓝光电影网

蓝光电影网

本站内容由用户自主分享和转载自互联网,转载目的在于传递更多信息,并不代表本网赞同其观点和对其真实性负责。

如有侵权、违反国家法律政策行为,请联系我们,我们会第一时间及时清除和处理!

举报反馈邮箱:[email protected]

快速回复 返回顶部 返回列表