找回密码

蓝光电影网

查看: 1369|回复: 1

[纪录] 惊魂记中计 78.52.Hitchcocks.Shower.Scene.2017.DOCU.1080p.BluRay.x264.DTS-FGT 8.16GB

[复制链接]
蓝光币
623
发表于 2018-4-12 22:11:31 | 显示全部楼层 |阅读模式
183103wga87nf8snyb60yb.jpg
◎译  名 惊魂记入彀(台)
◎片  名 78/52:希区柯克的洗澡戏 78/52
◎年  代 2016
◎产  地 美国
◎类  别 记载片
◎语  言 英语
◎上映日期 2016(美国)
◎IMDb评分  7.4/10 from 1,274 users
◎IMDb链接  http://www.imdb.com/title/tt4372240/
◎豆瓣评分 8.1/10 from 453 users
◎豆瓣链接 https://movie.douban.com/subject/26696069/
◎片  长 91分钟
◎导  演 Alexandre O. Philippe
◎主  演 杰米·李·柯蒂斯 Jamie Lee Curtis
      伊利亚·伍德 Elijah Wood
      丹尼·艾夫曼 Danny Elfman
      雷·沃纳尔 Leigh Whannell
      彼得·博格丹诺维奇 Peter Bogdanovich
      尼尔·马歇尔 Neil Marshall
      布莱特·伊斯顿·埃利斯 Bret Easton Ellis
      理查德·斯坦利 Richard Stanley
      奥兹·珀金斯 Oz Perkins
      沃尔特·默奇 Walter Murch
      卡瑞恩·库萨马 Karyn Kusama
      弗雷德·拉斯金 Fred Raskin
      乔希·C·沃勒 Josh C. Waller
      Mali Elfman
      鲍勃·穆拉夫斯基 Bob Murawski
      吉尔莫·德尔·托罗 Guillermo del Toro
      阿尔弗雷德·希区柯克 Alfred Hitchcock
      珍妮特·利 Janet Leigh
      伊莱·罗斯 Eli Roth

◎简  介

  78組鏡位,52次剪接,正值顛峰的希區考克花了七天時間,完成《驚魂記》中最懾民气魄的三分鐘浴室謀殺戲,至今仍為全天下懸疑發燒友們「驚驚」樂道。
  殭屍解密奇作《活人生吃全都錄》鬼才導演亞利山德奧菲利浦讲求魂复兴,請來奇异名導吉勒摩戴托羅、《可骇旅社》導演艾利羅斯、《魔戒》男配角伊萊亞伍德,以及許多好萊塢當今一線技術專才和資深影評重看《驚魂記》,拍攝一眾驚悚職人自預告、劇本、分鏡、聲音、道具,甚至歷史與社會布景等分歧角度切入,將這段傳奇劇碼開腸剖肚、逐鏡還原,嘗試挖掘細節中的一切魔鬼。
  從聖經繪畫到《鬼店》壁紙,從二戰遺緒到愛慾淫癖,細數大師鉅作,穿越百年影史,那些影迷們不敢問希區考克的,本片將逐一解答。@台北金馬影展


  1. Video
  2. ID                                       : 1
  3. Format                                   : AVC
  4. Format/Info                              : Advanced Video Codec
  5. Format profile                           : [email protected]
  6. Format settings                          : CABAC / 4 Ref Frames
  7. Format settings, CABAC                   : Yes
  8. Format settings, ReFrames                : 4 frames
  9. Codec ID                                 : V_MPEG4/ISO/AVC
  10. Duration                                 : 1 h 31 min
  11. Bit rate                                 : 11.5 Mb/s
  12. Width                                    : 1 920 pixels
  13. Height                                   : 1 040 pixels
  14. Display aspect ratio                     : 1.85:1
  15. Frame rate mode                          : Constant
  16. Frame rate                               : 23.976 (24000/1001) FPS
  17. Color space                              : YUV
  18. Chroma subsampling                       : 4:2:0
  19. Bit depth                                : 8 bits
  20. Scan type                                : Progressive
  21. Bits/(Pixel*Frame)                       : 0.240
  22. Stream size                              : 7.19GB (88%)
  23. Title                                    : 78.52.Hitchcocks.Shower.Scene.2017.DOCU.1080p.BluRay.x264.DTS-FGT
  24. Writing library                          : x264 core 148 r2795M aaa9aa8
  25. Encoding settings                        : cabac=1 / ref=4 / deblock=1:-2:-2 / analyse=0x3:0x113 / me=umh / subme=9 / psy=1 / psy_rd=1.00:0.15 / mixed_ref=1 / me_range=16 / chroma_me=1 / trellis=2 / 8x8dct=1 / cqm=0 / deadzone=21,11 / fast_pskip=1 / chroma_qp_offset=-3 / threads=24 / lookahead_threads=3 / sliced_threads=0 / nr=0 / decimate=1 / interlaced=0 / bluray_compat=0 / constrained_intra=0 / bframes=3 / b_pyramid=2 / b_adapt=2 / b_bias=0 / direct=3 / weightb=1 / open_gop=0 / weightp=2 / keyint=250 / keyint_min=25 / scenecut=40 / intra_refresh=0 / rc_lookahead=50 / rc=abr / mbtree=1 / bitrate=11500 / ratetol=1.0 / qcomp=0.60 / qpmin=0 / qpmax=69 / qpstep=4 / vbv_maxrate=31250 / vbv_bufsize=31250 / nal_hrd=none / filler=0 / ip_ratio=1.40 / aq=1:1.00
  26. Language                                 : English
  27. Default                                  : Yes
  28. Forced                                   : No

  29. Audio
  30. ID                                       : 2
  31. Format                                   : DTS
  32. Format/Info                              : Digital Theater Systems
  33. Codec ID                                 : A_DTS
  34. Duration                                 : 1 h 31 min
  35. Bit rate mode                            : Constant
  36. Bit rate                                 : 1 509 kb/s
  37. Channel(s)                               : 6 channels
  38. Channel positions                        : Front: L C R, Side: L R, LFE
  39. Sampling rate                            : 48.0 kHz
  40. Frame rate                               : 93.750 FPS (512 SPF)
  41. Bit depth                                : 24 bits
  42. Compression mode                         : Lossy
  43. Stream size                              : 991 MiB (12%)
  44. Title                                    : 78.52.Hitchcocks.Shower.Scene.2017.DOCU.1080p.BluRay.x264.DTS-FGT
  45. Language                                 : English
  46. Default                                  : No
  47. Forced                                   : No

  48. Text
  49. ID                                       : 3
  50. Format                                   : UTF-8
  51. Codec ID                                 : S_TEXT/UTF8
  52. Codec ID/Info                            : UTF-8 Plain Text
  53. Duration                                 : 1 h 25 min
  54. Bit rate                                 : 116 b/s
  55. Count of elements                        : 1798
  56. Stream size                              : 72.6 KiB (0%)
  57. Language                                 : English
  58. Default                                  : Yes
  59. Forced                                   : No

  60. Menu
  61. 00:00:00.000                             : en:Chapter 01
  62. 00:06:33.810                             : en:Chapter 02
  63. 00:13:59.004                             : en:Chapter 03
  64. 00:20:07.623                             : en:Chapter 04
  65. 00:26:22.956                             : en:Chapter 05
  66. 00:32:09.427                             : en:Chapter 06
  67. 00:42:23.832                             : en:Chapter 07
  68. 00:51:19.034                             : en:Chapter 08
  69. 00:58:06.566                             : en:Chapter 09
  70. 01:05:54.909                             : en:Chapter 10
  71. 01:13:46.422                             : en:Chapter 11
  72. 01:20:34.704                             : en:Chapter 12
  73. 01:31:45.124                             : en:Chapter 13



复制代码
复制代码
183103h2zabgddm3fqdqah.jpg 183103c8gee3yb5dy0dz30.jpg 183104acq54bi7451uiim7.jpg







回复

使用道具 举报

蓝光币
1240
发表于 2018-4-13 16:26:41 | 显示全部楼层

楼主发片辛苦了,万分感谢,好人一生平安!沙发收下了!
回复 支持 反对

使用道具 举报

懒得打字嘛,点击右侧快捷回复 【右侧内容,后台自定义】
您需要登录后才可以回帖 登录 | 立即加入

本版积分规则

Archiver|小黑屋| 蓝光电影网 |网站地图

Copyright © 2021 Comsenz Inc. Powered by 蓝光电影网

蓝光电影网

本站内容由用户自主分享和转载自互联网,转载目的在于传递更多信息,并不代表本网赞同其观点和对其真实性负责。

如有侵权、违反国家法律政策行为,请联系我们,我们会第一时间及时清除和处理!

举报反馈邮箱:[email protected]

快速回复 返回顶部 返回列表