找回密码

蓝光电影网

查看: 2852|回复: 3

异能/移动城市 Push.2009.2160p.BluRay.x264.8bit.SDR.DTS-HD.MA.TrueHD.7.1.Atmos-SWTYBLZ 58.21GB

[复制链接]
蓝光币
623
发表于 2018-4-12 22:20:48 | 显示全部楼层 |阅读模式
005800bkwzmheksh2ckhmq.jpg
◎译  名 异能/移动城市/超能豪杰
◎片  名 Push
◎年  代 2009
◎产  地 加拿大/英国/美国
◎类  别 行动/科幻/惊悚
◎语  言 英语/粤语
◎上映日期 2009-02-06(加拿大)
◎IMDb评分  6.1/10 from 96,931 users
◎IMDb链接  http://www.imdb.com/title/tt0465580/
◎豆瓣评分 5.9/10 from 23,817 users
◎豆瓣链接 https://movie.douban.com/subject/1946776/
◎片  长 111 分钟
◎导  演 保罗·麦奎根 Paul McGuigan
◎主  演 克里斯·埃文斯 Chris Evans
      达寇塔·范宁 Dakota Fanning
      卡米拉·贝勒 Camilla Belle
      李小璐 Xiaolu Li
      杰曼·翰苏 Djimon Hounsou
      温明娜 Ming-Na

◎简  介

  【剧情1】二战后,美国政府处处搜寻特异功强人士,并建立出格“部分”对其停止人体尝试,试图将异能植入兵士体内作为战争兵器。在一次药物实验中心灵感应“推手”姬拉(卡米拉·贝勒 Camilla Belle 饰)携药品逃至香港,“部分”派出奸细亨利?卡佛(杰曼·韩苏 Djimon Hounsou 饰)负责追捕。香港某区,一向回避“部分”的意念移物“灵动听”尼克(克里斯?埃文斯 Chris Evans 饰)帮助可预见未来的“透视人”少女卡西(达科塔·范宁 Dakota Fanning 饰)逃出音爆人兄弟及其 “透视人” 妹妹“棒棒糖女孩”(李小璐饰)的追杀。在当地灵异人士的帮助下,尼克与卡西找到姬拉,却发现在药物的影响下,姬拉已然命在旦夕……
  【剧情2】1945年,纳粹科学家不竭停止超能转移的实验,渴望将超乎平常的异能经过注射移入普通兵士的身材。虽然战争竣事,但这项实验仍在继续。战后,列国政府成扬名为“隔离区”的奥秘基地,他们四周网罗具有出色天赋的孩子停止实验,功效和灭亡跬步不离。异能者尼克(克里斯·埃文斯 Chris Evans 饰)的父亲(Joel Gretsch 饰)曾是某政府培育的超能杀人者。随着年龄的增加,他的父亲渴望过回正凡人的生活,成果却遭杀戮。十年后,隐居香港的尼克碰到13岁的小女孩凯希(达科塔·范宁 Dakota Fanning 饰)。凯希是一位观察者,她具有正确预知未来的才能。她从隔离区逃窜引发轩然大波,而和尼克的重逢也让工作变得越发复杂和危险……



  1. Video
  2. ID                                       : 1
  3. Format                                   : AVC
  4. Format/Info                              : Advanced Video Codec
  5. Format profile                           : [email protected]
  6. Format settings                          : CABAC / 5 Ref Frames
  7. Format settings, CABAC                   : Yes
  8. Format settings, RefFrames               : 5 frames
  9. Codec ID                                 : V_MPEG4/ISO/AVC
  10. Duration                                 : 1 h 51 min
  11. Bit rate                                 : 63.5 Mb/s
  12. Width                                    : 3 840 pixels
  13. Height                                   : 1 632 pixels
  14. Display aspect ratio                     : 2.35:1
  15. Frame rate mode                          : Constant
  16. Frame rate                               : 23.976 (24000/1001) FPS
  17. Color space                              : YUV
  18. Chroma subsampling                       : 4:2:0
  19. Bit depth                                : 8 bits
  20. Scan type                                : Progressive
  21. Bits/(Pixel*Frame)                       : 0.423
  22. Stream size                              : 49.4GB (85%)
  23. Title                                    : Push.2009.2160p.BluRay.x264.8bit.SDR.DTS-HD.MA.TrueHD.7.1.Atmos-SWTYBLZ
  24. Writing library                          : x264 core 148 r2748 97eaef2
  25. Encoding settings                        : cabac=1 / ref=5 / deblock=1:-1:-1 / analyse=0x3:0x113 / me=umh / subme=10 / psy=1 / psy_rd=1.00:0.15 / mixed_ref=1 / me_range=48 / chroma_me=1 / trellis=2 / 8x8dct=1 / cqm=0 / deadzone=21,11 / fast_pskip=1 / chroma_qp_offset=-3 / threads=51 / lookahead_threads=4 / sliced_threads=0 / nr=0 / decimate=0 / interlaced=0 / bluray_compat=0 / constrained_intra=0 / bframes=3 / b_pyramid=2 / b_adapt=2 / b_bias=0 / direct=3 / weightb=1 / open_gop=0 / weightp=2 / keyint=250 / keyint_min=23 / scenecut=40 / intra_refresh=0 / rc_lookahead=50 / rc=crf / mbtree=1 / crf=18.0 / qcomp=0.60 / qpmin=0 / qpmax=69 / qpstep=4 / ip_ratio=1.40 / aq=1:1.00
  26. Default                                  : Yes
  27. Forced                                   : No

  28. Audio #1
  29. ID                                       : 2
  30. Format                                   : TrueHD
  31. Format profile                           : TrueHD+Atmos / TrueHD
  32. Codec ID                                 : A_TRUEHD
  33. Duration                                 : 1 h 51 min
  34. Bit rate mode                            : Variable
  35. Bit rate                                 : 5 399 kb/s
  36. Maximum bit rate                         : 9 315 kb/s
  37. Channel(s)                               : Object Based / 8 channels
  38. Channel positions                        : Object Based / Front: L C R, Side: L R, Back: L R, LFE
  39. Sampling rate                            :  / 48.0 kHz
  40. Frame rate                               : 1 200.000 FPS (40 SPF)
  41. Compression mode                         : Lossless
  42. Delay relative to video                  : 1 ms
  43. Stream size                              : 4.20GB (7%)
  44. Title                                    : Push.2009.2160p.BluRay.x264.8bit.SDR.DTS-HD.MA.TrueHD.7.1.Atmos-SWTYBLZ
  45. Language                                 : English
  46. Default                                  : Yes
  47. Forced                                   : No

  48. Audio #2
  49. ID                                       : 3
  50. Format                                   : DTS
  51. Format/Info                              : Digital Theater Systems
  52. Format profile                           : MA / Core
  53. Codec ID                                 : A_DTS
  54. Duration                                 : 1 h 51 min
  55. Bit rate mode                            : Variable / Constant
  56. Bit rate                                 : 4 276 kb/s / 1 509 kb/s
  57. Channel(s)                               : 8 channels / 6 channels
  58. Channel positions                        : Front: L C R, Side: L R, Back: L R, LFE / Front: L C R, Side: L R, LFE
  59. Sampling rate                            : 48.0 kHz
  60. Frame rate                               : 93.750 FPS (512 SPF)
  61. Bit depth                                : 24 bits
  62. Compression mode                         : Lossless / Lossy
  63. Stream size                              : 3.33GB (6%)
  64. Title                                    : Push.2009.2160p.BluRay.x264.8bit.SDR.DTS-HD.MA.TrueHD.7.1.Atmos-SWTYBLZ
  65. Language                                 : English
  66. Default                                  : No
  67. Forced                                   : No

  68. Audio #3
  69. ID                                       : 4
  70. Format                                   : AC-3
  71. Format/Info                              : Audio Coding 3
  72. Codec ID                                 : A_AC3
  73. Duration                                 : 1 h 51 min
  74. Bit rate mode                            : Constant
  75. Bit rate                                 : 448 kb/s
  76. Channel(s)                               : 6 channels
  77. Channel positions                        : Front: L C R, Side: L R, LFE
  78. Sampling rate                            : 48.0 kHz
  79. Frame rate                               : 31.250 FPS (1536 SPF)
  80. Bit depth                                : 16 bits
  81. Compression mode                         : Lossy
  82. Delay relative to video                  : 1 ms
  83. Stream size                              : 357 MiB (1%)
  84. Title                                    : Push.2009.2160p.BluRay.x264.8bit.SDR.DTS-HD.MA.TrueHD.7.1.Atmos-SWTYBLZ
  85. Language                                 : English
  86. Service kind                             : Complete Main
  87. Default                                  : No
  88. Forced                                   : No

  89. Audio #4
  90. ID                                       : 5
  91. Format                                   : AC-3
  92. Format/Info                              : Audio Coding 3
  93. Codec ID                                 : A_AC3
  94. Duration                                 : 1 h 51 min
  95. Bit rate mode                            : Constant
  96. Bit rate                                 : 192 kb/s
  97. Channel(s)                               : 2 channels
  98. Channel positions                        : Front: L R
  99. Sampling rate                            : 48.0 kHz
  100. Frame rate                               : 31.250 FPS (1536 SPF)
  101. Bit depth                                : 16 bits
  102. Compression mode                         : Lossy
  103. Delay relative to video                  : 23 ms
  104. Stream size                              : 153 MiB (0%)
  105. Title                                    : Push.2009.2160p.BluRay.x264.8bit.SDR.DTS-HD.MA.TrueHD.7.1.Atmos-SWTYBLZ
  106. Language                                 : English
  107. Service kind                             : Complete Main
  108. Default                                  : No
  109. Forced                                   : No

  110. Audio #5
  111. ID                                       : 6
  112. Format                                   : AC-3
  113. Format/Info                              : Audio Coding 3
  114. Codec ID                                 : A_AC3
  115. Duration                                 : 1 h 51 min
  116. Bit rate mode                            : Constant
  117. Bit rate                                 : 448 kb/s
  118. Channel(s)                               : 6 channels
  119. Channel positions                        : Front: L C R, Side: L R, LFE
  120. Sampling rate                            : 48.0 kHz
  121. Frame rate                               : 31.250 FPS (1536 SPF)
  122. Bit depth                                : 16 bits
  123. Compression mode                         : Lossy
  124. Delay relative to video                  : 23 ms
  125. Stream size                              : 357 MiB (1%)
  126. Title                                    : Push.2009.2160p.BluRay.x264.8bit.SDR.DTS-HD.MA.TrueHD.7.1.Atmos-SWTYBLZ
  127. Language                                 : Spanish
  128. Service kind                             : Complete Main
  129. Default                                  : No
  130. Forced                                   : No

  131. Text #1
  132. ID                                       : 7
  133. Format                                   : UTF-8
  134. Codec ID                                 : S_TEXT/UTF8
  135. Codec ID/Info                            : UTF-8 Plain Text
  136. Duration                                 : 1 h 45 min
  137. Bit rate                                 : 38 b/s
  138. Count of elements                        : 906
  139. Stream size                              : 29.5 KiB (0%)
  140. Title                                    : English-SRT
  141. Language                                 : English
  142. Default                                  : Yes
  143. Forced                                   : No

  144. Text #2
  145. ID                                       : 8
  146. Format                                   : PGS
  147. Muxing mode                              : zlib
  148. Codec ID                                 : S_HDMV/PGS
  149. Codec ID/Info                            : Picture based subtitle format used on BDs/HD-DVDs
  150. Duration                                 : 1 h 45 min
  151. Bit rate                                 : 28.6 kb/s
  152. Count of elements                        : 2054
  153. Stream size                              : 21.6 MiB (0%)
  154. Title                                    : English-PGS
  155. Language                                 : English
  156. Default                                  : No
  157. Forced                                   : No

  158. Text #3
  159. ID                                       : 9
  160. Format                                   : PGS
  161. Muxing mode                              : zlib
  162. Codec ID                                 : S_HDMV/PGS
  163. Codec ID/Info                            : Picture based subtitle format used on BDs/HD-DVDs
  164. Duration                                 : 1 h 45 min
  165. Bit rate                                 : 23.3 kb/s
  166. Count of elements                        : 1718
  167. Stream size                              : 17.7 MiB (0%)
  168. Title                                    : Spanish-PGS
  169. Language                                 : Spanish
  170. Default                                  : No
  171. Forced                                   : No

  172. Menu
  173. 00:00:00.000                             : en:Chapter 1
  174. 00:07:37.248                             : en:Chapter 2
  175. 00:15:16.916                             : en:Chapter 3
  176. 00:21:54.146                             : en:Chapter 4
  177. 00:28:58.361                             : en:Chapter 5
  178. 00:33:56.743                             : en:Chapter 6
  179. 00:40:30.136                             : en:Chapter 7
  180. 00:47:04.446                             : en:Chapter 8
  181. 00:54:15.335                             : en:Chapter 9
  182. 01:03:20.713                             : en:Chapter 10
  183. 01:10:14.793                             : en:Chapter 11
  184. 01:16:47.352                             : en:Chapter 12
  185. 01:23:14.030                             : en:Chapter 13
  186. 01:30:03.564                             : en:Chapter 14
  187. 01:32:29.669                             : en:Chapter 15
  188. 01:43:19.818                             : en:Chapter 16

复制代码
复制代码
005801ds2seuv1e4uze8c4.jpg 005801tjvlabfjlkaj9uoa.jpg 005801indshhxqqbsdq99h.jpg 005802k89txobxjjzyt999.jpg 005802sjv09s2c0hkzfvvh.jpg






回复

使用道具 举报

蓝光币
135
发表于 2018-4-13 07:32:36 | 显示全部楼层
谢谢分享!
回复

使用道具 举报

蓝光币
821
发表于 2018-4-14 14:27:10 | 显示全部楼层
强烈支持楼主ing……
回复 支持 反对

使用道具 举报

蓝光币
23
发表于 2018-4-14 14:33:10 | 显示全部楼层
强烈支持楼主ing……
回复 支持 反对

使用道具 举报

懒得打字嘛,点击右侧快捷回复 【右侧内容,后台自定义】
您需要登录后才可以回帖 登录 | 立即加入

本版积分规则

Archiver|小黑屋| 蓝光电影网 |网站地图

Copyright © 2021 Comsenz Inc. Powered by 蓝光电影网

蓝光电影网

本站内容由用户自主分享和转载自互联网,转载目的在于传递更多信息,并不代表本网赞同其观点和对其真实性负责。

如有侵权、违反国家法律政策行为,请联系我们,我们会第一时间及时清除和处理!

举报反馈邮箱:[email protected]

快速回复 返回顶部 返回列表