找回密码

蓝光电影网

查看: 2096|回复: 1

底特律/底特律暴乱 Detroit.2017.2160p.BluRay.x264.8bit.SDR.DTS-HD.MA.5.1-SWTYBLZ 32.94GB

[复制链接]
蓝光币
623
发表于 2018-4-12 22:21:24 | 显示全部楼层 |阅读模式
143901rs2bswisw3jlppbm.jpg
◎译  名 底特律/底特律暴乱
◎片  名 Detroit
◎年  代 2017
◎产  地 美国
◎类  别 剧情/历史/犯罪
◎语  言 英语
◎上映日期 2017-07-25(底特律首映)/2017-08-04(美国)
◎IMDb评分  7.4/10 from 29,197 users
◎IMDb链接  http://www.imdb.com/title/tt5390504/
◎豆瓣评分 7.9/10 from 9,632 users
◎豆瓣链接 https://movie.douban.com/subject/26718836/
◎片  长 143分钟
◎导  演 凯瑟琳·毕格罗 Kathryn Bigelow
◎主  演 约翰·博耶加 John Boyega
      威尔·保尔特 Will Poulter
      阿尔吉·史姑娘 Algee Smith
      雅各布·拉提摩尔 Jacob Latimore
      杰森·米切尔 Jason Mitchell
      汉娜·穆雷 Hannah Murray
      杰克·莱诺 Jack Reynor
      凯特琳·德弗 Kaitlyn Dever
      本·奥图尔 Ben O'Toole
      约翰·卡拉辛斯基 John Krasinski
      安东尼·麦凯 Anthony Mackie
      内森·戴维斯 Nathan Davis Jr.
      佩顿·亚历克斯·史姑娘 Peyton 'Alex' Smith
      马尔科姆·大卫·凯利 Malcolm David Kelley
      约瑟夫·戴维-琼斯 Joseph David-Jones
      拉兹·阿隆索 Laz Alonso
      伊弗雷姆·赛克斯 Ephraim Sykes
      莱昂·托马斯三世 Leon Thomas III
      格本加·阿金纳格贝 Gbenga Akinnagbe
      克里斯·乔克 Chris Chalk
      杰瑞米·斯特朗 Jeremy Strong
      萨米拉·威利 Samira Wiley
      泰勒·詹姆斯·威廉姆 Tyler James Williams

◎简  介

  《拆弹军队》(The Hurt Locker)和《刺杀本拉登》(Zero Dark Thirty)导演凯瑟琳·毕格罗(Kathryn Bigelow)行将和《拆弹军队》编剧马克·鲍尔(Mark Boal)再度合作,拍摄一部报告1967年末特律黑人骚乱的电影。
  该片今朝暂无片名,计划三月起头选角,今年炎天开机拍摄。
  1967年的底特律黑人骚乱是美国历史上破坏性最大的种族骚乱之一,原由是差人7月23日清晨进入黑人区一家酒馆拘系黑人。此次法律行动激发黑人不满,他们闻讯而来向差人抛掷石块和砖头。
  后来警方支援到来,强行遣散黑人,但适得其反,黑人越聚越多终极激发涉及全城的大范围纷扰。这场骚乱延续了五天,形成43人灭亡,很多修建被毁、很多人受伤。骚乱还舒展到伊利诺伊、北卡罗来纳、田纳西、马里兰州。
  这部电影计划在这场骚乱50周年,也就是2017年上映。

◎获奖情况

  第22届金卫星奖  (2018)
  电影部分 最好原创歌曲(提名)

  第4届豆瓣电影年度榜单  (2017)
  12月最受关注电影(提名)



  1. Video
  2. ID                                       : 1
  3. Format                                   : AVC
  4. Format/Info                              : Advanced Video Codec
  5. Format profile                           : [email protected]
  6. Format settings                          : CABAC / 5 Ref Frames
  7. Format settings, CABAC                   : Yes
  8. Format settings, RefFrames               : 5 frames
  9. Codec ID                                 : V_MPEG4/ISO/AVC
  10. Duration                                 : 2 h 24 min
  11. Bit rate                                 : 30.0 Mb/s
  12. Width                                    : 3 840 pixels
  13. Height                                   : 2 076 pixels
  14. Display aspect ratio                     : 1.85:1
  15. Frame rate mode                          : Constant
  16. Frame rate                               : 23.976 (24000/1001) FPS
  17. Color space                              : YUV
  18. Chroma subsampling                       : 4:2:0
  19. Bit depth                                : 8 bits
  20. Scan type                                : Progressive
  21. Bits/(Pixel*Frame)                       : 0.157
  22. Stream size                              : 30.2GB (92%)
  23. Title                                    : Detroit.2017.2160p.BluRay.x264.8bit.SDR.DTS-HD.MA.5.1-SWTYBLZ
  24. Writing library                          : x264 core 148 r2748 97eaef2
  25. Encoding settings                        : cabac=1 / ref=5 / deblock=1:-1:-1 / analyse=0x3:0x113 / me=umh / subme=10 / psy=1 / psy_rd=1.00:0.15 / mixed_ref=1 / me_range=48 / chroma_me=1 / trellis=2 / 8x8dct=1 / cqm=0 / deadzone=21,11 / fast_pskip=1 / chroma_qp_offset=-3 / threads=36 / lookahead_threads=3 / sliced_threads=0 / nr=0 / decimate=0 / interlaced=0 / bluray_compat=0 / constrained_intra=0 / bframes=3 / b_pyramid=2 / b_adapt=2 / b_bias=0 / direct=3 / weightb=1 / open_gop=0 / weightp=2 / keyint=250 / keyint_min=23 / scenecut=40 / intra_refresh=0 / rc_lookahead=50 / rc=crf / mbtree=1 / crf=22.0 / qcomp=0.60 / qpmin=0 / qpmax=69 / qpstep=4 / ip_ratio=1.40 / aq=1:1.00
  26. Language                                 : English
  27. Default                                  : Yes
  28. Forced                                   : No

  29. Audio #1
  30. ID                                       : 2
  31. Format                                   : DTS
  32. Format/Info                              : Digital Theater Systems
  33. Format profile                           : MA / Core
  34. Codec ID                                 : A_DTS
  35. Duration                                 : 2 h 24 min
  36. Bit rate mode                            : Variable / Constant
  37. Bit rate                                 : 1 920 kb/s / 1 509 kb/s
  38. Channel(s)                               : 6 channels
  39. Channel positions                        : Front: L C R, Side: L R, LFE
  40. Sampling rate                            : 48.0 kHz
  41. Frame rate                               : 93.750 FPS (512 SPF)
  42. Bit depth                                : 16 bits
  43. Compression mode                         : Lossless / Lossy
  44. Stream size                              : 1.92GB (6%)
  45. Title                                    : Detroit.2017.2160p.BluRay.x264.8bit.SDR.DTS-HD.MA.5.1-SWTYBLZ
  46. Language                                 : English
  47. Default                                  : Yes
  48. Forced                                   : No

  49. Audio #2
  50. ID                                       : 3
  51. Format                                   : AC-3
  52. Format/Info                              : Audio Coding 3
  53. Codec ID                                 : A_AC3
  54. Duration                                 : 2 h 24 min
  55. Bit rate mode                            : Constant
  56. Bit rate                                 : 640 kb/s
  57. Channel(s)                               : 6 channels
  58. Channel positions                        : Front: L C R, Side: L R, LFE
  59. Sampling rate                            : 48.0 kHz
  60. Frame rate                               : 31.250 FPS (1536 SPF)
  61. Bit depth                                : 16 bits
  62. Compression mode                         : Lossy
  63. Stream size                              : 660 MiB (2%)
  64. Title                                    : Detroit.2017.2160p.BluRay.x264.8bit.SDR.DTS-HD.MA.5.1-SWTYBLZ
  65. Language                                 : English
  66. Service kind                             : Complete Main
  67. Default                                  : No
  68. Forced                                   : No

  69. Text #1
  70. ID                                       : 4
  71. Format                                   : UTF-8
  72. Codec ID                                 : S_TEXT/UTF8
  73. Codec ID/Info                            : UTF-8 Plain Text
  74. Duration                                 : 2 h 11 min
  75. Bit rate                                 : 64 b/s
  76. Count of elements                        : 2102
  77. Stream size                              : 61.7 KiB (0%)
  78. Title                                    : English-SRT
  79. Language                                 : English
  80. Default                                  : Yes
  81. Forced                                   : No

  82. Text #2
  83. ID                                       : 5
  84. Format                                   : UTF-8
  85. Codec ID                                 : S_TEXT/UTF8
  86. Codec ID/Info                            : UTF-8 Plain Text
  87. Duration                                 : 2 h 14 min
  88. Bit rate                                 : 2 b/s
  89. Count of elements                        : 46
  90. Stream size                              : 1.99 KiB (0%)
  91. Title                                    : English-FORCED-SRT
  92. Language                                 : English
  93. Default                                  : No
  94. Forced                                   : No

  95. Text #3
  96. ID                                       : 6
  97. Format                                   : PGS
  98. Muxing mode                              : zlib
  99. Codec ID                                 : S_HDMV/PGS
  100. Codec ID/Info                            : Picture based subtitle format used on BDs/HD-DVDs
  101. Duration                                 : 2 h 14 min
  102. Bit rate                                 : 1 233 b/s
  103. Count of elements                        : 92
  104. Stream size                              : 1.19 MiB (0%)
  105. Title                                    : English-PGS
  106. Language                                 : English
  107. Default                                  : No
  108. Forced                                   : No

  109. Text #4
  110. ID                                       : 7
  111. Format                                   : PGS
  112. Muxing mode                              : zlib
  113. Codec ID                                 : S_HDMV/PGS
  114. Codec ID/Info                            : Picture based subtitle format used on BDs/HD-DVDs
  115. Duration                                 : 2 h 22 min
  116. Bit rate                                 : 34.1 kb/s
  117. Count of elements                        : 3286
  118. Stream size                              : 34.7 MiB (0%)
  119. Title                                    : German-PGS
  120. Language                                 : German
  121. Default                                  : No
  122. Forced                                   : No

  123. Text #5
  124. ID                                       : 8
  125. Format                                   : PGS
  126. Muxing mode                              : zlib
  127. Codec ID                                 : S_HDMV/PGS
  128. Codec ID/Info                            : Picture based subtitle format used on BDs/HD-DVDs
  129. Duration                                 : 2 h 20 min
  130. Bit rate                                 : 31.4 kb/s
  131. Count of elements                        : 3182
  132. Stream size                              : 31.7 MiB (0%)
  133. Title                                    : German-PGS
  134. Language                                 : German
  135. Default                                  : No
  136. Forced                                   : No

  137. Menu
  138. 00:00:00.000                             : en:Chapter 1
  139. 00:04:41.281                             : en:Chapter 2
  140. 00:09:47.128                             : en:Chapter 3
  141. 00:15:42.191                             : en:Chapter 4
  142. 00:26:36.928                             : en:Chapter 5
  143. 00:33:00.186                             : en:Chapter 6
  144. 00:36:44.660                             : en:Chapter 7
  145. 00:41:40.331                             : en:Chapter 8
  146. 00:50:33.530                             : en:Chapter 9
  147. 00:56:02.650                             : en:Chapter 10
  148. 00:59:34.821                             : en:Chapter 11
  149. 01:06:45.501                             : en:Chapter 12
  150. 01:11:20.734                             : en:Chapter 13
  151. 01:14:54.948                             : en:Chapter 14
  152. 01:25:41.386                             : en:Chapter 15
  153. 01:29:25.151                             : en:Chapter 16
  154. 01:33:35.901                             : en:Chapter 17
  155. 01:40:16.010                             : en:Chapter 18
  156. 01:49:31.731                             : en:Chapter 19
  157. 01:52:49.554                             : en:Chapter 20
  158. 01:59:54.103                             : en:Chapter 21
  159. 02:05:24.350                             : en:Chapter 22
  160. 02:10:51.802                             : en:Chapter 23
  161. 02:15:31.665                             : en:Chapter 24

复制代码
复制代码
143901ryyqnqki7syyhy8y.jpg 143902fb3nb2nl3tklpbk8.jpg 143902pxaaaqan3yalajmx.jpg 143902g8wij3ejndw07jud.jpg 143903jrh24bj9h4bqz3a0.jpg







回复

使用道具 举报

蓝光币
76
发表于 2018-4-15 15:02:33 | 显示全部楼层
激动人心,无法言表!
回复 支持 反对

使用道具 举报

懒得打字嘛,点击右侧快捷回复 【右侧内容,后台自定义】
您需要登录后才可以回帖 登录 | 立即加入

本版积分规则

Archiver|小黑屋| 蓝光电影网 |网站地图

Copyright © 2021 Comsenz Inc. Powered by 蓝光电影网

蓝光电影网

本站内容由用户自主分享和转载自互联网,转载目的在于传递更多信息,并不代表本网赞同其观点和对其真实性负责。

如有侵权、违反国家法律政策行为,请联系我们,我们会第一时间及时清除和处理!

举报反馈邮箱:[email protected]

快速回复 返回顶部 返回列表