找回密码

蓝光电影网

查看: 1249|回复: 3

[纪录] 惊魂记中计 78.52.Hitchcocks.Shower.Scene.2017.DOCU.1080p.BluRay.REMUX.AVC.DTS-HD.MA.5.1-FGT 25.39GB

[复制链接]
蓝光币
623
发表于 2018-4-12 22:24:43 | 显示全部楼层 |阅读模式
183506joerq3ycji39i2ea.jpg
◎译  名 惊魂记入彀(台)
◎片  名 78/52:希区柯克的洗澡戏 78/52
◎年  代 2016
◎产  地 美国
◎类  别 记载片
◎语  言 英语
◎上映日期 2016(美国)
◎IMDb评分  7.4/10 from 1,274 users
◎IMDb链接  http://www.imdb.com/title/tt4372240/
◎豆瓣评分 8.1/10 from 453 users
◎豆瓣链接 https://movie.douban.com/subject/26696069/
◎片  长 91分钟
◎导  演 Alexandre O. Philippe
◎主  演 杰米·李·柯蒂斯 Jamie Lee Curtis
      伊利亚·伍德 Elijah Wood
      丹尼·艾夫曼 Danny Elfman
      雷·沃纳尔 Leigh Whannell
      彼得·博格丹诺维奇 Peter Bogdanovich
      尼尔·马歇尔 Neil Marshall
      布莱特·伊斯顿·埃利斯 Bret Easton Ellis
      理查德·斯坦利 Richard Stanley
      奥兹·珀金斯 Oz Perkins
      沃尔特·默奇 Walter Murch
      卡瑞恩·库萨马 Karyn Kusama
      弗雷德·拉斯金 Fred Raskin
      乔希·C·沃勒 Josh C. Waller
      Mali Elfman
      鲍勃·穆拉夫斯基 Bob Murawski
      吉尔莫·德尔·托罗 Guillermo del Toro
      阿尔弗雷德·希区柯克 Alfred Hitchcock
      珍妮特·利 Janet Leigh
      伊莱·罗斯 Eli Roth

◎简  介

  78組鏡位,52次剪接,正值顛峰的希區考克花了七天時間,完成《驚魂記》中最懾民气魄的三分鐘浴室謀殺戲,至今仍為全天下懸疑發燒友們「驚驚」樂道。
  殭屍解密奇作《活人生吃全都錄》鬼才導演亞利山德奧菲利浦讲求魂复兴,請來奇异名導吉勒摩戴托羅、《可骇旅社》導演艾利羅斯、《魔戒》男配角伊萊亞伍德,以及許多好萊塢當今一線技術專才和資深影評重看《驚魂記》,拍攝一眾驚悚職人自預告、劇本、分鏡、聲音、道具,甚至歷史與社會布景等分歧角度切入,將這段傳奇劇碼開腸剖肚、逐鏡還原,嘗試挖掘細節中的一切魔鬼。
  從聖經繪畫到《鬼店》壁紙,從二戰遺緒到愛慾淫癖,細數大師鉅作,穿越百年影史,那些影迷們不敢問希區考克的,本片將逐一解答。@台北金馬影展


  1. Video
  2. ID                                       : 1
  3. Format                                   : AVC
  4. Format/Info                              : Advanced Video Codec
  5. Format profile                           : [email protected]
  6. Format settings                          : CABAC / 4 Ref Frames
  7. Format settings, CABAC                   : Yes
  8. Format settings, ReFrames                : 4 frames
  9. Codec ID                                 : V_MPEG4/ISO/AVC
  10. Duration                                 : 1 h 31 min
  11. Bit rate mode                            : Variable
  12. Bit rate                                 : 31.5 Mb/s
  13. Maximum bit rate                         : 36.0 Mb/s
  14. Width                                    : 1 920 pixels
  15. Height                                   : 1 080 pixels
  16. Display aspect ratio                     : 16:9
  17. Frame rate mode                          : Constant
  18. Frame rate                               : 23.976 (24000/1001) FPS
  19. Color space                              : YUV
  20. Chroma subsampling                       : 4:2:0
  21. Bit depth                                : 8 bits
  22. Scan type                                : Progressive
  23. Bits/(Pixel*Frame)                       : 0.633
  24. Stream size                              : 20.2GB (79%)
  25. Title                                    : 78.52.Hitchcocks.Shower.Scene.2017.1080p.BluRay.REMUX.AVC.DTS-HD.MA.5.1-FGT
  26. Language                                 : English
  27. Default                                  : No
  28. Forced                                   : No

  29. Audio #1
  30. ID                                       : 2
  31. Format                                   : DTS
  32. Format/Info                              : Digital Theater Systems
  33. Format profile                           : MA / Core
  34. Codec ID                                 : A_DTS
  35. Duration                                 : 1 h 31 min
  36. Bit rate mode                            : Variable / Constant
  37. Bit rate                                 : 3 332 kb/s / 1 509 kb/s
  38. Channel(s)                               : 6 channels
  39. Channel positions                        : Front: L C R, Side: L R, LFE
  40. Sampling rate                            : 48.0 kHz
  41. Frame rate                               : 93.750 FPS (512 SPF)
  42. Bit depth                                : 24 bits
  43. Compression mode                         : Lossless / Lossy
  44. Stream size                              : 2.14GB (8%)
  45. Title                                    : 78.52.Hitchcocks.Shower.Scene.2017.1080p.BluRay.REMUX.AVC.DTS-HD.MA.5.1-FGT
  46. Language                                 : English
  47. Default                                  : Yes
  48. Forced                                   : No

  49. Audio #2
  50. ID                                       : 3
  51. Format                                   : DTS
  52. Format/Info                              : Digital Theater Systems
  53. Codec ID                                 : A_DTS
  54. Duration                                 : 1 h 31 min
  55. Bit rate mode                            : Constant
  56. Bit rate                                 : 1 509 kb/s
  57. Channel(s)                               : 6 channels
  58. Channel positions                        : Front: L C R, Side: L R, LFE
  59. Sampling rate                            : 48.0 kHz
  60. Frame rate                               : 93.750 FPS (512 SPF)
  61. Bit depth                                : 24 bits
  62. Compression mode                         : Lossy
  63. Stream size                              : 991 MiB (4%)
  64. Title                                    : 78.52.Hitchcocks.Shower.Scene.2017.1080p.BluRay.REMUX.AVC.DTS-HD.MA.5.1-FGT
  65. Language                                 : English
  66. Default                                  : No
  67. Forced                                   : No

  68. Audio #3
  69. ID                                       : 4
  70. Format                                   : DTS
  71. Format/Info                              : Digital Theater Systems
  72. Format profile                           : MA / Core
  73. Codec ID                                 : A_DTS
  74. Duration                                 : 1 h 31 min
  75. Bit rate mode                            : Variable / Constant
  76. Bit rate                                 : 1 721 kb/s / 1 509 kb/s
  77. Channel(s)                               : 2 channels
  78. Channel positions                        : Front: L R
  79. Sampling rate                            : 48.0 kHz
  80. Frame rate                               : 93.750 FPS (512 SPF)
  81. Bit depth                                : 24 bits
  82. Compression mode                         : Lossless / Lossy
  83. Stream size                              : 1.10GB (4%)
  84. Title                                    : 78.52.Hitchcocks.Shower.Scene.2017.1080p.BluRay.REMUX.AVC.DTS-HD.MA.5.1-FGT
  85. Language                                 : English
  86. Default                                  : No
  87. Forced                                   : No

  88. Audio #4
  89. ID                                       : 5
  90. Format                                   : DTS
  91. Format/Info                              : Digital Theater Systems
  92. Codec ID                                 : A_DTS
  93. Duration                                 : 1 h 31 min
  94. Bit rate mode                            : Constant
  95. Bit rate                                 : 1 509 kb/s
  96. Channel(s)                               : 2 channels
  97. Channel positions                        : Front: L R
  98. Sampling rate                            : 48.0 kHz
  99. Frame rate                               : 93.750 FPS (512 SPF)
  100. Bit depth                                : 24 bits
  101. Compression mode                         : Lossy
  102. Stream size                              : 991 MiB (4%)
  103. Title                                    : 78.52.Hitchcocks.Shower.Scene.2017.1080p.BluRay.REMUX.AVC.DTS-HD.MA.5.1-FGT
  104. Language                                 : English
  105. Default                                  : No
  106. Forced                                   : No

  107. Text #1
  108. ID                                       : 6
  109. Format                                   : PGS
  110. Muxing mode                              : zlib
  111. Codec ID                                 : S_HDMV/PGS
  112. Codec ID/Info                            : Picture based subtitle format used on BDs/HD-DVDs
  113. Duration                                 : 1 h 31 min
  114. Bit rate                                 : 60.0 kb/s
  115. Count of elements                        : 3089
  116. Stream size                              : 39.2 MiB (0%)
  117. Title                                    : English-PGS
  118. Language                                 : English
  119. Default                                  : No
  120. Forced                                   : No

  121. Text #2
  122. ID                                       : 7
  123. Format                                   : PGS
  124. Muxing mode                              : zlib
  125. Codec ID                                 : S_HDMV/PGS
  126. Codec ID/Info                            : Picture based subtitle format used on BDs/HD-DVDs
  127. Duration                                 : 1 h 25 min
  128. Bit rate                                 : 65.3 kb/s
  129. Count of elements                        : 1947
  130. Stream size                              : 39.8 MiB (0%)
  131. Title                                    : Spanish-PGS
  132. Language                                 : Spanish
  133. Default                                  : No
  134. Forced                                   : No

  135. Menu
  136. 00:00:00.000                             : en:Chapter 01
  137. 00:06:33.810                             : en:Chapter 02
  138. 00:13:59.004                             : en:Chapter 03
  139. 00:20:07.623                             : en:Chapter 04
  140. 00:26:22.956                             : en:Chapter 05
  141. 00:32:09.427                             : en:Chapter 06
  142. 00:42:23.832                             : en:Chapter 07
  143. 00:51:19.034                             : en:Chapter 08
  144. 00:58:06.566                             : en:Chapter 09
  145. 01:05:54.909                             : en:Chapter 10
  146. 01:13:46.422                             : en:Chapter 11
  147. 01:20:34.704                             : en:Chapter 12
  148. 01:31:45.124                             : en:Chapter 13



复制代码
复制代码
183507j8lons2gxpia2gga.jpg 183507j99iba95niikf0m3.jpg 183508opf11rrdaicohn81.jpg







回复

使用道具 举报

蓝光币
143
发表于 2018-4-21 23:39:32 | 显示全部楼层

非常精彩!!感谢分享!!!
回复 支持 反对

使用道具 举报

懒得打字嘛,点击右侧快捷回复 【右侧内容,后台自定义】
您需要登录后才可以回帖 登录 | 立即加入

本版积分规则

Archiver|小黑屋| 蓝光电影网 |网站地图

Copyright © 2021 Comsenz Inc. Powered by 蓝光电影网

蓝光电影网

本站内容由用户自主分享和转载自互联网,转载目的在于传递更多信息,并不代表本网赞同其观点和对其真实性负责。

如有侵权、违反国家法律政策行为,请联系我们,我们会第一时间及时清除和处理!

举报反馈邮箱:[email protected]

快速回复 返回顶部 返回列表