找回密码

蓝光电影网

查看: 5038|回复: 6

[动作] 通勤营救/疾速救援 The.Commuter.2018.1080p.BluRay.REMUX.AVC.DTS-HD.MA.TrueHD.7.1.Atmos-FGT 33.47GB

[复制链接]
蓝光币
623
发表于 2018-4-12 22:25:08 | 显示全部楼层 |阅读模式
192102q4kd4vv7z7x4w7zu.jpg
◎译  名 通勤救援/快速救济/追命列车
◎片  名 The Commuter
◎年  代 2018
◎产  地 美国/英国
◎类  别 行动/犯罪/惊悚
◎语  言 英语
◎上映日期 2018-01-12(美国)/2018-03-30(中国大陆)
◎IMDb评分  6.3/10 from 29,061 users
◎IMDb链接  http://www.imdb.com/title/tt1590193/
◎豆瓣评分 6.8/10 from 19,060 users
◎豆瓣链接 https://movie.douban.com/subject/7056414/
◎片  长 105分钟/104分钟(中国大陆)
◎导  演 佐米·希尔拉 Jaume Collet-Serra
◎主  演 连姆·尼森 Liam Neeson
      维拉·法米加 Vera Farmiga
      帕特里克·威尔森 Patrick Wilson
      乔纳森·班克斯 Jonathan Banks
      山姆·尼尔 Sam Neill
      伊丽莎白·麦戈文 Elizabeth McGovern
      基连·斯科特 Killian Scott
      沙扎德·拉蒂夫 Shazad Latif
      安迪·尼曼 Andy Nyman
      克拉拉·拉戈 Clara Lago
      罗兰·默勒 Roland M?ller
      弗洛伦斯·皮尤 Florence Pugh
      迪恩·查尔斯·查普曼 Dean-Charles Chapman
      埃拉-雷·史姑娘 Ella-Rae Smith
      妮拉·阿利亚 Nila Aalia
      柯林·麦克法兰 Colin McFarlane
      寇布勒·霍尔德布鲁克-史姑娘 Kobna Holdbrook-Smith
      亚当·那加提斯 Adam Nagaitis
      金斯利·本-阿德 Kingsley Ben-Adir
      戴姆森·伊德瑞斯 Damson Idris
      本·卡普兰 Ben Caplan
      利蒂希娅·赖特 Letitia Wright
      杰米·比米什 Jamie Beamish

◎简  介

  影片将故事设定在一列通勤列车上,一位十年如一日乘坐列车上放工的商界人士麦考利(连姆·尼森 饰),偶遇一位自动搭赸的“奥秘乘客”乔安娜(维拉·法米加 饰)。乔安娜为麦考利供给了一个极具引诱性的使命——找出车上的一位乘客,即可获得一笔巨额现金作为回报。但在寻觅的进程中,麦考利逐步发现自己卷入到一场致命的危险处境中。
  他能否可以从这辆“可骇列车”中成功逃走,背后又隐藏着怎样的惊天诡计。随着列车不竭加速,真相逐一揭开......


  1. Video
  2. ID                                       : 1
  3. Format                                   : AVC
  4. Format/Info                              : Advanced Video Codec
  5. Format profile                           : [email protected]
  6. Format settings                          : CABAC / 4 Ref Frames
  7. Format settings, CABAC                   : Yes
  8. Format settings, ReFrames                : 4 frames
  9. Codec ID                                 : V_MPEG4/ISO/AVC
  10. Duration                                 : 1 h 44 min
  11. Bit rate mode                            : Variable
  12. Bit rate                                 : 34.7 Mb/s
  13. Maximum bit rate                         : 37.0 Mb/s
  14. Width                                    : 1 920 pixels
  15. Height                                   : 1 080 pixels
  16. Display aspect ratio                     : 16:9
  17. Frame rate mode                          : Constant
  18. Frame rate                               : 23.976 (24000/1001) FPS
  19. Color space                              : YUV
  20. Chroma subsampling                       : 4:2:0
  21. Bit depth                                : 8 bits
  22. Scan type                                : Progressive
  23. Bits/(Pixel*Frame)                       : 0.699
  24. Stream size                              : 25.5GB (76%)
  25. Title                                    : The.Commuter.2018.1080p.BluRay.REMUX.AVC.DTS-HD.MA.TrueHD.7.1.Atmos-FGT
  26. Language                                 : English
  27. Default                                  : No
  28. Forced                                   : No

  29. Audio #1
  30. ID                                       : 2
  31. Format                                   : TrueHD
  32. Format profile                           : TrueHD+Atmos / TrueHD
  33. Codec ID                                 : A_TRUEHD
  34. Duration                                 : 1 h 44 min
  35. Bit rate mode                            : Variable
  36. Bit rate                                 : 4 970 kb/s
  37. Maximum bit rate                         : 6 402 kb/s
  38. Channel(s)                               : Object Based / 8 channels
  39. Channel positions                        : Object Based / Front: L C R, Side: L R, Back: L R, LFE
  40. Sampling rate                            :  / 48.0 kHz
  41. Frame rate                               : 1 200.000 FPS (40 SPF)
  42. Compression mode                         : Lossless
  43. Stream size                              : 3.64GB (11%)
  44. Title                                    : The.Commuter.2018.1080p.BluRay.REMUX.AVC.DTS-HD.MA.TrueHD.7.1.Atmos-FGT
  45. Language                                 : English
  46. Default                                  : Yes
  47. Forced                                   : No

  48. Audio #2
  49. ID                                       : 3
  50. Format                                   : DTS
  51. Format/Info                              : Digital Theater Systems
  52. Format profile                           : MA / Core
  53. Codec ID                                 : A_DTS
  54. Duration                                 : 1 h 44 min
  55. Bit rate mode                            : Variable / Constant
  56. Bit rate                                 : 4 093 kb/s / 1 509 kb/s
  57. Channel(s)                               : 8 channels / 6 channels
  58. Channel positions                        : Front: L C R, Side: L R, Back: L R, LFE / Front: L C R, Side: L R, LFE
  59. Sampling rate                            : 48.0 kHz
  60. Frame rate                               : 93.750 FPS (512 SPF)
  61. Bit depth                                : 24 bits
  62. Compression mode                         : Lossless / Lossy
  63. Stream size                              : 3.00GB (9%)
  64. Title                                    : The.Commuter.2018.1080p.BluRay.REMUX.AVC.DTS-HD.MA.TrueHD.7.1.Atmos-FGT
  65. Language                                 : English
  66. Default                                  : No
  67. Forced                                   : No

  68. Audio #3
  69. ID                                       : 4
  70. Format                                   : AC-3
  71. Format/Info                              : Audio Coding 3
  72. Codec ID                                 : A_AC3
  73. Duration                                 : 1 h 44 min
  74. Bit rate mode                            : Constant
  75. Bit rate                                 : 448 kb/s
  76. Channel(s)                               : 6 channels
  77. Channel positions                        : Front: L C R, Side: L R, LFE
  78. Sampling rate                            : 48.0 kHz
  79. Frame rate                               : 31.250 FPS (1536 SPF)
  80. Bit depth                                : 16 bits
  81. Compression mode                         : Lossy
  82. Stream size                              : 336 MiB (1%)
  83. Title                                    : The.Commuter.2018.1080p.BluRay.REMUX.AVC.DTS-HD.MA.TrueHD.7.1.Atmos-FGT
  84. Language                                 : English
  85. Service kind                             : Complete Main
  86. Default                                  : No
  87. Forced                                   : No

  88. Audio #4
  89. ID                                       : 5
  90. Format                                   : AC-3
  91. Format/Info                              : Audio Coding 3
  92. Codec ID                                 : A_AC3
  93. Duration                                 : 1 h 44 min
  94. Bit rate mode                            : Constant
  95. Bit rate                                 : 448 kb/s
  96. Channel(s)                               : 6 channels
  97. Channel positions                        : Front: L C R, Side: L R, LFE
  98. Sampling rate                            : 48.0 kHz
  99. Frame rate                               : 31.250 FPS (1536 SPF)
  100. Bit depth                                : 16 bits
  101. Compression mode                         : Lossy
  102. Stream size                              : 336 MiB (1%)
  103. Title                                    : The.Commuter.2018.1080p.BluRay.REMUX.AVC.DTS-HD.MA.TrueHD.7.1.Atmos-FGT
  104. Language                                 : Spanish
  105. Service kind                             : Complete Main
  106. Default                                  : No
  107. Forced                                   : No

  108. Audio #5
  109. ID                                       : 6
  110. Format                                   : AC-3
  111. Format/Info                              : Audio Coding 3
  112. Codec ID                                 : A_AC3
  113. Duration                                 : 1 h 44 min
  114. Bit rate mode                            : Constant
  115. Bit rate                                 : 448 kb/s
  116. Channel(s)                               : 6 channels
  117. Channel positions                        : Front: L C R, Side: L R, LFE
  118. Sampling rate                            : 48.0 kHz
  119. Frame rate                               : 31.250 FPS (1536 SPF)
  120. Bit depth                                : 16 bits
  121. Compression mode                         : Lossy
  122. Stream size                              : 336 MiB (1%)
  123. Title                                    : The.Commuter.2018.1080p.BluRay.REMUX.AVC.DTS-HD.MA.TrueHD.7.1.Atmos-FGT
  124. Language                                 : French
  125. Service kind                             : Complete Main
  126. Default                                  : No
  127. Forced                                   : No

  128. Audio #6
  129. ID                                       : 7
  130. Format                                   : AC-3
  131. Format/Info                              : Audio Coding 3
  132. Codec ID                                 : A_AC3
  133. Duration                                 : 1 h 44 min
  134. Bit rate mode                            : Constant
  135. Bit rate                                 : 192 kb/s
  136. Channel(s)                               : 2 channels
  137. Channel positions                        : Front: L R
  138. Sampling rate                            : 48.0 kHz
  139. Frame rate                               : 31.250 FPS (1536 SPF)
  140. Bit depth                                : 16 bits
  141. Compression mode                         : Lossy
  142. Stream size                              : 144 MiB (0%)
  143. Title                                    : The.Commuter.2018.1080p.BluRay.REMUX.AVC.DTS-HD.MA.TrueHD.7.1.Atmos-FGT
  144. Language                                 : English
  145. Service kind                             : Complete Main
  146. Default                                  : No
  147. Forced                                   : No

  148. Audio #7
  149. ID                                       : 8
  150. Format                                   : AC-3
  151. Format/Info                              : Audio Coding 3
  152. Codec ID                                 : A_AC3
  153. Duration                                 : 1 h 44 min
  154. Bit rate mode                            : Constant
  155. Bit rate                                 : 192 kb/s
  156. Channel(s)                               : 2 channels
  157. Channel positions                        : Front: L R
  158. Sampling rate                            : 48.0 kHz
  159. Frame rate                               : 31.250 FPS (1536 SPF)
  160. Bit depth                                : 16 bits
  161. Compression mode                         : Lossy
  162. Stream size                              : 144 MiB (0%)
  163. Title                                    : The.Commuter.2018.1080p.BluRay.REMUX.AVC.DTS-HD.MA.TrueHD.7.1.Atmos-FGT
  164. Language                                 : English
  165. Service kind                             : Complete Main
  166. Default                                  : No
  167. Forced                                   : No

  168. Text #1
  169. ID                                       : 9
  170. Format                                   : PGS
  171. Muxing mode                              : zlib
  172. Codec ID                                 : S_HDMV/PGS
  173. Codec ID/Info                            : Picture based subtitle format used on BDs/HD-DVDs
  174. Duration                                 : 1 h 37 min
  175. Bit rate                                 : 43.8 kb/s
  176. Count of elements                        : 2647
  177. Stream size                              : 30.7 MiB (0%)
  178. Title                                    : English-PGS
  179. Language                                 : English
  180. Default                                  : No
  181. Forced                                   : No

  182. Text #2
  183. ID                                       : 10
  184. Format                                   : PGS
  185. Muxing mode                              : zlib
  186. Codec ID                                 : S_HDMV/PGS
  187. Codec ID/Info                            : Picture based subtitle format used on BDs/HD-DVDs
  188. Duration                                 : 1 h 44 min
  189. Bit rate                                 : 47.1 kb/s
  190. Count of elements                        : 3065
  191. Stream size                              : 35.1 MiB (0%)
  192. Title                                    : English-SDH-PGS
  193. Language                                 : English
  194. Default                                  : No
  195. Forced                                   : No

  196. Text #3
  197. ID                                       : 11
  198. Format                                   : PGS
  199. Muxing mode                              : zlib
  200. Codec ID                                 : S_HDMV/PGS
  201. Codec ID/Info                            : Picture based subtitle format used on BDs/HD-DVDs
  202. Duration                                 : 1 h 37 min
  203. Bit rate                                 : 41.4 kb/s
  204. Count of elements                        : 2489
  205. Stream size                              : 29.0 MiB (0%)
  206. Title                                    : Spanish-PGS
  207. Language                                 : Spanish
  208. Default                                  : No
  209. Forced                                   : No

  210. Text #4
  211. ID                                       : 12
  212. Format                                   : PGS
  213. Muxing mode                              : zlib
  214. Codec ID                                 : S_HDMV/PGS
  215. Codec ID/Info                            : Picture based subtitle format used on BDs/HD-DVDs
  216. Duration                                 : 1 h 20 min
  217. Bit rate                                 : 569 b/s
  218. Count of elements                        : 30
  219. Stream size                              : 336 KiB (0%)
  220. Title                                    : Spanish-FORCED-PGS
  221. Language                                 : Spanish
  222. Default                                  : No
  223. Forced                                   : No

  224. Menu
  225. 00:00:00.000                             : en:Chapter 01
  226. 00:05:38.254                             : en:Chapter 02
  227. 00:12:23.492                             : en:Chapter 03
  228. 00:16:54.471                             : en:Chapter 04
  229. 00:25:36.117                             : en:Chapter 05
  230. 00:32:20.855                             : en:Chapter 06
  231. 00:41:37.953                             : en:Chapter 07
  232. 00:44:38.217                             : en:Chapter 08
  233. 00:52:38.989                             : en:Chapter 09
  234. 00:59:30.650                             : en:Chapter 10
  235. 01:04:50.845                             : en:Chapter 11
  236. 01:11:53.517                             : en:Chapter 12
  237. 01:20:23.318                             : en:Chapter 13
  238. 01:25:23.159                             : en:Chapter 14
  239. 01:30:45.648                             : en:Chapter 15
  240. 01:37:26.340                             : en:Chapter 16



复制代码
复制代码
192103qgawwxffstf9gts0.jpg 192103tpd674gwv6g94vgx.jpg 192104fx93iaxivoeh9h6o.jpg







回复

使用道具 举报

蓝光币
821
发表于 2018-4-12 22:52:21 | 显示全部楼层
感谢分享好电影
回复 支持 反对

使用道具 举报

蓝光币
821
发表于 2018-4-14 14:24:17 | 显示全部楼层
谢谢分享谢谢
回复 支持 反对

使用道具 举报

蓝光币
143
发表于 2018-4-14 18:27:30 | 显示全部楼层
谢谢楼主 谢谢你了
回复 支持 反对

使用道具 举报

蓝光币
0
发表于 2018-4-23 20:15:32 | 显示全部楼层
谢谢分享,楼主好人!!!
回复 支持 反对

使用道具 举报

蓝光币
154
发表于 2018-5-1 11:35:02 | 显示全部楼层
分享好电影,非常感谢
回复 支持 反对

使用道具 举报

蓝光币
315
发表于 2018-8-21 15:49:35 | 显示全部楼层
<通勤营救>这个值得看!
回复 支持 反对

使用道具 举报

懒得打字嘛,点击右侧快捷回复 【右侧内容,后台自定义】
您需要登录后才可以回帖 登录 | 立即加入

本版积分规则

Archiver|小黑屋| 蓝光电影网 |网站地图

Copyright © 2021 Comsenz Inc. Powered by 蓝光电影网

蓝光电影网

本站内容由用户自主分享和转载自互联网,转载目的在于传递更多信息,并不代表本网赞同其观点和对其真实性负责。

如有侵权、违反国家法律政策行为,请联系我们,我们会第一时间及时清除和处理!

举报反馈邮箱:[email protected]

快速回复 返回顶部 返回列表