找回密码

蓝光电影网

查看: 3347|回复: 3

[动画] 心理游戏/心灵游戏 Mind.Game.2004.JAPANESE.1080p.BluRay.REMUX.AVC.LPCM.5.1-FGT 20.27GB

[复制链接]
蓝光币
623
发表于 2018-4-12 22:25:34 | 显示全部楼层 |阅读模式
192131k92ycy0talyc0yz5.jpg
◎译  名 心理游戏/心灵游戏
◎片  名 マインド?ゲーム
◎年  代 2004
◎产  地 日本
◎类  别 动画/冒险/笑剧/悬疑
◎语  言 日语
◎上映日期 2004-08-07(日本)
◎IMDb评分  7.9/10 from 6,688 users
◎IMDb链接  http://www.imdb.com/title/tt0452039/
◎豆瓣评分 8.9/10 from 17,778 users
◎豆瓣链接 https://movie.douban.com/subject/1477916/
◎片  长 103 分钟
◎导  演 汤浅政明 Masaaki Yuasa
◎主  演 今田耕司 Koji Imada
      藤井隆 Takashi Fujii
      山口智充 Tomomitsu Yamaguchi
      Sayaka Maeda
      Seiko Takuma
      Toshio Sakata
      Joji Shimaki
      西凛太朗 Rintarou Nishi
      Kenichi Chujou

◎简  介

  一天雨夜,青年漫画家西(今田耕司 配音)在地铁站出来碰见了初恋梦中情人弥(前田沙耶香 配音)。西送弥回家途中得知了弥已订婚,随后,他被弥约请到酒馆饮酒,弥的未婚夫也来了,西虽然妒忌弥的未婚夫,但自愧不如。这时,黑社会来到店里,本来弥被黑社会所追杀,打晕了弥的男友并要强奸弥,西则伸直一旁不敢转动。黑社会发现了一旁的西,用枪爆了他的屁眼。前一刻,西还沉醉于与初恋梦中情人重逢时的甜蜜,下一刻就肛门中枪,贯串脑部,死于横死。当西等人上了天堂,西感觉自己死得很丢脸,后悔人生过得很窝囊,决心再度新生。他们一行人违反神的意旨,并回到地上的天下,却鬼使神差却来到了鲸鱼的肚子里,接下来又将会有什么期待着他们呢……


  1. Video
  2. ID                                       : 1
  3. Format                                   : AVC
  4. Format/Info                              : Advanced Video Codec
  5. Format profile                           : [email protected]
  6. Format settings                          : CABAC / 2 Ref Frames
  7. Format settings, CABAC                   : Yes
  8. Format settings, ReFrames                : 2 frames
  9. Format settings, GOP                     : M=1, N=10
  10. Codec ID                                 : V_MPEG4/ISO/AVC
  11. Duration                                 : 1 h 43 min
  12. Bit rate mode                            : Variable
  13. Bit rate                                 : 18.9 Mb/s
  14. Width                                    : 1 920 pixels
  15. Height                                   : 1 080 pixels
  16. Display aspect ratio                     : 16:9
  17. Frame rate mode                          : Constant
  18. Frame rate                               : 24.000 FPS
  19. Color space                              : YUV
  20. Chroma subsampling                       : 4:2:0
  21. Bit depth                                : 8 bits
  22. Scan type                                : Progressive
  23. Bits/(Pixel*Frame)                       : 0.379
  24. Stream size                              : 13.6GB (67%)
  25. Title                                    : Mind.Game.2004.JAPANESE.1080p.BluRay.REMUX.AVC.LPCM.5.1-FGT
  26. Language                                 : English
  27. Default                                  : No
  28. Forced                                   : No

  29. Audio #1
  30. ID                                       : 2
  31. Format                                   : PCM
  32. Format settings                          : Little / Signed
  33. Codec ID                                 : A_MS/ACM / 00000001-0000-0010-8000-00AA00389B71
  34. Duration                                 : 1 h 43 min
  35. Bit rate mode                            : Constant
  36. Bit rate                                 : 6 912 kb/s / 6 912 kb/s
  37. Channel(s)                               : 6 channels
  38. Channel positions                        : Front: L C R, Side: L R, LFE
  39. Sampling rate                            : 48.0 kHz
  40. Frame rate                               : 30.000 FPS (1600 SPF)
  41. Bit depth                                : 24 bits
  42. Stream size                              : 4.98GB (25%)
  43. Title                                    : Mind.Game.2004.JAPANESE.1080p.BluRay.REMUX.AVC.LPCM.5.1-FGT
  44. Language                                 : Japanese
  45. Default                                  : Yes
  46. Forced                                   : No

  47. Audio #2
  48. ID                                       : 3
  49. Format                                   : PCM
  50. Format settings                          : Little / Signed
  51. Codec ID                                 : A_PCM/INT/LIT
  52. Duration                                 : 1 h 43 min
  53. Bit rate mode                            : Constant
  54. Bit rate                                 : 2 304 kb/s
  55. Channel(s)                               : 2 channels
  56. Sampling rate                            : 48.0 kHz
  57. Frame rate                               : 30.000 FPS (1600 SPF)
  58. Bit depth                                : 24 bits
  59. Stream size                              : 1.66GB (8%)
  60. Title                                    : Mind.Game.2004.JAPANESE.1080p.BluRay.REMUX.AVC.LPCM.5.1-FGT
  61. Language                                 : Japanese
  62. Default                                  : No
  63. Forced                                   : No

  64. Text #1
  65. ID                                       : 4
  66. Format                                   : PGS
  67. Muxing mode                              : zlib
  68. Codec ID                                 : S_HDMV/PGS
  69. Codec ID/Info                            : Picture based subtitle format used on BDs/HD-DVDs
  70. Duration                                 : 1 h 40 min
  71. Bit rate                                 : 65.8 kb/s
  72. Count of elements                        : 3008
  73. Stream size                              : 47.2 MiB (0%)
  74. Title                                    : English-PGS
  75. Language                                 : English
  76. Default                                  : No
  77. Forced                                   : No

  78. Text #2
  79. ID                                       : 5
  80. Format                                   : PGS
  81. Muxing mode                              : zlib
  82. Codec ID                                 : S_HDMV/PGS
  83. Codec ID/Info                            : Picture based subtitle format used on BDs/HD-DVDs
  84. Duration                                 : 1 h 35 min
  85. Bit rate                                 : 58.5 kb/s
  86. Count of elements                        : 2814
  87. Stream size                              : 39.8 MiB (0%)
  88. Title                                    : French-PGS
  89. Language                                 : French
  90. Default                                  : No
  91. Forced                                   : No

  92. Text #3
  93. ID                                       : 6
  94. Format                                   : PGS
  95. Muxing mode                              : zlib
  96. Codec ID                                 : S_HDMV/PGS
  97. Codec ID/Info                            : Picture based subtitle format used on BDs/HD-DVDs
  98. Duration                                 : 1 h 40 min
  99. Bit rate                                 : 46.5 kb/s
  100. Count of elements                        : 3008
  101. Stream size                              : 33.4 MiB (0%)
  102. Title                                    : Spanish-PGS
  103. Language                                 : Spanish
  104. Default                                  : No
  105. Forced                                   : No

  106. Menu
  107. 00:00:00.000                             : en:Chapter 01
  108. 00:03:24.583                             : en:Chapter 02
  109. 00:08:13.000                             : en:Chapter 03
  110. 00:13:12.666                             : en:Chapter 04
  111. 00:22:56.875                             : en:Chapter 05
  112. 00:31:23.750                             : en:Chapter 06
  113. 00:37:18.583                             : en:Chapter 07
  114. 00:41:33.625                             : en:Chapter 08
  115. 00:44:27.708                             : en:Chapter 09
  116. 00:55:49.916                             : en:Chapter 10
  117. 01:00:10.750                             : en:Chapter 11
  118. 01:03:49.291                             : en:Chapter 12
  119. 01:05:48.375                             : en:Chapter 13
  120. 01:08:30.458                             : en:Chapter 14
  121. 01:11:56.250                             : en:Chapter 15
  122. 01:14:01.291                             : en:Chapter 16
  123. 01:17:50.625                             : en:Chapter 17
  124. 01:24:03.958                             : en:Chapter 18
  125. 01:32:46.750                             : en:Chapter 19
  126. 01:35:40.541                             : en:Chapter 20



复制代码
复制代码
192132v33ke34qnn662cmz.jpg 192132n444fw44w78fx174.jpg 192133nn31ff31m0kf88w8.jpg






回复

使用道具 举报

懒得打字嘛,点击右侧快捷回复 【右侧内容,后台自定义】
您需要登录后才可以回帖 登录 | 立即加入

本版积分规则

Archiver|小黑屋| 蓝光电影网 |网站地图

Copyright © 2021 Comsenz Inc. Powered by 蓝光电影网

蓝光电影网

本站内容由用户自主分享和转载自互联网,转载目的在于传递更多信息,并不代表本网赞同其观点和对其真实性负责。

如有侵权、违反国家法律政策行为,请联系我们,我们会第一时间及时清除和处理!

举报反馈邮箱:[email protected]

快速回复 返回顶部 返回列表