找回密码

蓝光电影网

查看: 1128|回复: 3

[动作] 荣誉/荣耀 Honor.Up.2018.1080p.BluRay.REMUX.AVC.DTS-HD.MA.5.1-FGT 20.13GB

[复制链接]
蓝光币
623
发表于 2018-4-12 22:26:32 | 显示全部楼层 |阅读模式
192240tbxg65xxltl3l3gj.jpg
◎译  名 声誉/光荣
◎片  名 Honor Up
◎年  代 2018
◎产  地 美国
◎类  别 行动/犯罪/冒险
◎语  言 英语
◎上映日期 2018-02-16(美国)
◎IMDb评分  2.4/10 from 111 users
◎IMDb链接  http://www.imdb.com/title/tt7642326/
◎豆瓣评分 /10 from 0 users
◎豆瓣链接 https://movie.douban.com/subject/30149492/
◎片  长 84分钟
◎导  演 达蒙·达什 Damon Dash
◎主  演 Jay Black
      Blackface
      Danny Worthy Boards
      Eishia Brightwell
      Cam'ron
      达蒙·达什 Damon Dash
      斯黛西·达什 Stacey Dash

◎简  介

  A drug lord's lieutenant struggles to protect his crime family and his own honor after a shootout.


  1. Video
  2. ID                                       : 1
  3. Format                                   : AVC
  4. Format/Info                              : Advanced Video Codec
  5. Format profile                           : [email protected]
  6. Format settings                          : CABAC / 4 Ref Frames
  7. Format settings, CABAC                   : Yes
  8. Format settings, ReFrames                : 4 frames
  9. Codec ID                                 : V_MPEG4/ISO/AVC
  10. Duration                                 : 1 h 24 min
  11. Bit rate mode                            : Variable
  12. Bit rate                                 : 28.9 Mb/s
  13. Maximum bit rate                         : 37.0 Mb/s
  14. Width                                    : 1 920 pixels
  15. Height                                   : 1 080 pixels
  16. Display aspect ratio                     : 16:9
  17. Frame rate mode                          : Constant
  18. Frame rate                               : 23.976 (24000/1001) FPS
  19. Color space                              : YUV
  20. Chroma subsampling                       : 4:2:0
  21. Bit depth                                : 8 bits
  22. Scan type                                : Progressive
  23. Bits/(Pixel*Frame)                       : 0.581
  24. Stream size                              : 17.0GB (84%)
  25. Title                                    : Honor.Up.2018.1080p.BluRay.REMUX.AVC.DTS-HD.MA.5.1-FGT
  26. Language                                 : English
  27. Default                                  : No
  28. Forced                                   : No

  29. Audio #1
  30. ID                                       : 2
  31. Format                                   : DTS
  32. Format/Info                              : Digital Theater Systems
  33. Format profile                           : MA / Core
  34. Codec ID                                 : A_DTS
  35. Duration                                 : 1 h 24 min
  36. Bit rate mode                            : Variable / Constant
  37. Bit rate                                 : 3 542 kb/s / 1 509 kb/s
  38. Channel(s)                               : 6 channels
  39. Channel positions                        : Front: L C R, Side: L R, LFE
  40. Sampling rate                            : 48.0 kHz
  41. Frame rate                               : 93.750 FPS (512 SPF)
  42. Bit depth                                : 24 bits
  43. Compression mode                         : Lossless / Lossy
  44. Stream size                              : 2.08GB (10%)
  45. Title                                    : Honor.Up.2018.1080p.BluRay.REMUX.AVC.DTS-HD.MA.5.1-FGT
  46. Language                                 : English
  47. Default                                  : Yes
  48. Forced                                   : No

  49. Audio #2
  50. ID                                       : 3
  51. Format                                   : DTS
  52. Format/Info                              : Digital Theater Systems
  53. Codec ID                                 : A_DTS
  54. Duration                                 : 1 h 24 min
  55. Bit rate mode                            : Constant
  56. Bit rate                                 : 1 509 kb/s
  57. Channel(s)                               : 6 channels
  58. Channel positions                        : Front: L C R, Side: L R, LFE
  59. Sampling rate                            : 48.0 kHz
  60. Frame rate                               : 93.750 FPS (512 SPF)
  61. Bit depth                                : 24 bits
  62. Compression mode                         : Lossy
  63. Stream size                              : 908 MiB (4%)
  64. Title                                    : Honor.Up.2018.1080p.BluRay.REMUX.AVC.DTS-HD.MA.5.1-FGT
  65. Language                                 : English
  66. Default                                  : No
  67. Forced                                   : No

  68. Audio #3
  69. ID                                       : 4
  70. Format                                   : AC-3
  71. Format/Info                              : Audio Coding 3
  72. Codec ID                                 : A_AC3
  73. Duration                                 : 1 h 24 min
  74. Bit rate mode                            : Constant
  75. Bit rate                                 : 192 kb/s
  76. Channel(s)                               : 2 channels
  77. Channel positions                        : Front: L R
  78. Sampling rate                            : 48.0 kHz
  79. Frame rate                               : 31.250 FPS (1536 SPF)
  80. Bit depth                                : 16 bits
  81. Compression mode                         : Lossy
  82. Stream size                              : 116 MiB (1%)
  83. Title                                    : Honor.Up.2018.1080p.BluRay.REMUX.AVC.DTS-HD.MA.5.1-FGT
  84. Language                                 : English
  85. Service kind                             : Complete Main
  86. Default                                  : No
  87. Forced                                   : No

  88. Text #1
  89. ID                                       : 5
  90. Format                                   : PGS
  91. Muxing mode                              : zlib
  92. Codec ID                                 : S_HDMV/PGS
  93. Codec ID/Info                            : Picture based subtitle format used on BDs/HD-DVDs
  94. Duration                                 : 1 h 20 min
  95. Bit rate                                 : 60.8 kb/s
  96. Count of elements                        : 2832
  97. Stream size                              : 34.9 MiB (0%)
  98. Title                                    : English-PGS
  99. Language                                 : English
  100. Default                                  : No
  101. Forced                                   : No

  102. Text #2
  103. ID                                       : 6
  104. Format                                   : PGS
  105. Muxing mode                              : zlib
  106. Codec ID                                 : S_HDMV/PGS
  107. Codec ID/Info                            : Picture based subtitle format used on BDs/HD-DVDs
  108. Duration                                 : 1 h 23 min
  109. Bit rate                                 : 66.3 kb/s
  110. Count of elements                        : 3320
  111. Stream size                              : 39.6 MiB (0%)
  112. Title                                    : English-SDH-PGS
  113. Language                                 : English
  114. Default                                  : No
  115. Forced                                   : No

  116. Text #3
  117. ID                                       : 7
  118. Format                                   : PGS
  119. Muxing mode                              : zlib
  120. Codec ID                                 : S_HDMV/PGS
  121. Codec ID/Info                            : Picture based subtitle format used on BDs/HD-DVDs
  122. Duration                                 : 1 h 20 min
  123. Bit rate                                 : 55.1 kb/s
  124. Count of elements                        : 2610
  125. Stream size                              : 31.6 MiB (0%)
  126. Title                                    : Spanish-PGS
  127. Language                                 : Spanish
  128. Default                                  : No
  129. Forced                                   : No

  130. Menu
  131. 00:00:00.000                             : en:Chapter 01
  132. 00:04:13.836                             : en:Chapter 02
  133. 00:10:57.573                             : en:Chapter 03
  134. 00:16:44.003                             : en:Chapter 04
  135. 00:22:23.342                             : en:Chapter 05
  136. 00:27:19.220                             : en:Chapter 06
  137. 00:31:58.082                             : en:Chapter 07
  138. 00:35:59.490                             : en:Chapter 08
  139. 00:40:51.782                             : en:Chapter 09
  140. 00:48:03.463                             : en:Chapter 10
  141. 00:52:12.879                             : en:Chapter 11
  142. 00:56:51.699                             : en:Chapter 12
  143. 01:04:34.704                             : en:Chapter 13
  144. 01:09:20.906                             : en:Chapter 14
  145. 01:13:36.954                             : en:Chapter 15
  146. 01:18:06.848                             : en:Chapter 16



复制代码
复制代码
192240kii1pibfpiy9ks1z.jpg 192241e4il3e137dklk9vc.jpg 192241nv27p5z1n29n97j1.jpg






回复

使用道具 举报

蓝光币
0
发表于 2018-4-14 15:54:49 | 显示全部楼层
谢谢楼主无私奉献。。
回复 支持 反对

使用道具 举报

蓝光币
57
发表于 2018-4-14 21:51:20 | 显示全部楼层
我要金豆豆~~~
回复 支持 反对

使用道具 举报

蓝光币
0
发表于 2018-4-15 08:53:20 | 显示全部楼层
谢谢楼主无私奉献,下载收藏。
回复 支持 反对

使用道具 举报

懒得打字嘛,点击右侧快捷回复 【右侧内容,后台自定义】
您需要登录后才可以回帖 登录 | 立即加入

本版积分规则

Archiver|小黑屋| 蓝光电影网 |网站地图

Copyright © 2021 Comsenz Inc. Powered by 蓝光电影网

蓝光电影网

本站内容由用户自主分享和转载自互联网,转载目的在于传递更多信息,并不代表本网赞同其观点和对其真实性负责。

如有侵权、违反国家法律政策行为,请联系我们,我们会第一时间及时清除和处理!

举报反馈邮箱:[email protected]

快速回复 返回顶部 返回列表