找回密码

蓝光电影网

查看: 2939|回复: 2

底特律/底特律暴乱 Detroit.2017.2160p.BluRay.x265.10bit.SDR.DTS-HD.MA.5.1-SWTYBLZ 30.19GB

[复制链接]
蓝光币
623
发表于 2018-4-13 23:54:01 | 显示全部楼层 |阅读模式
234445qqjhwbbf92p2w99f.jpg
◎译  名 底特律/底特律暴乱
◎片  名 Detroit
◎年  代 2017
◎产  地 美国
◎类  别 剧情/历史/犯罪
◎语  言 英语
◎上映日期 2017-07-25(底特律首映)/2017-08-04(美国)
◎IMDb评分  7.4/10 from 29,210 users
◎IMDb链接  http://www.imdb.com/title/tt5390504/
◎豆瓣评分 7.9/10 from 9,639 users
◎豆瓣链接 https://movie.douban.com/subject/26718836/
◎片  长 143分钟
◎导  演 凯瑟琳·毕格罗 Kathryn Bigelow
◎主  演 约翰·博耶加 John Boyega
      威尔·保尔特 Will Poulter
      阿尔吉·史姑娘 Algee Smith
      雅各布·拉提摩尔 Jacob Latimore
      杰森·米切尔 Jason Mitchell
      汉娜·穆雷 Hannah Murray
      杰克·莱诺 Jack Reynor
      凯特琳·德弗 Kaitlyn Dever
      本·奥图尔 Ben O'Toole
      约翰·卡拉辛斯基 John Krasinski
      安东尼·麦凯 Anthony Mackie
      内森·戴维斯 Nathan Davis Jr.
      佩顿·亚历克斯·史姑娘 Peyton 'Alex' Smith
      马尔科姆·大卫·凯利 Malcolm David Kelley
      约瑟夫·戴维-琼斯 Joseph David-Jones
      拉兹·阿隆索 Laz Alonso
      伊弗雷姆·赛克斯 Ephraim Sykes
      莱昂·托马斯三世 Leon Thomas III
      格本加·阿金纳格贝 Gbenga Akinnagbe
      克里斯·乔克 Chris Chalk
      杰瑞米·斯特朗 Jeremy Strong
      萨米拉·威利 Samira Wiley
      泰勒·詹姆斯·威廉姆 Tyler James Williams

◎简  介

  《拆弹军队》(The Hurt Locker)和《刺杀本拉登》(Zero Dark Thirty)导演凯瑟琳·毕格罗(Kathryn Bigelow)行将和《拆弹军队》编剧马克·鲍尔(Mark Boal)再度合作,拍摄一部报告1967年末特律黑人骚乱的电影。
  该片今朝暂无片名,计划三月起头选角,今年炎天开机拍摄。
  1967年的底特律黑人骚乱是美国历史上破坏性最大的种族骚乱之一,原由是差人7月23日清晨进入黑人区一家酒馆拘系黑人。此次法律行动激发黑人不满,他们闻讯而来向差人抛掷石块和砖头。
  后来警方支援到来,强行遣散黑人,但适得其反,黑人越聚越多终极激发涉及全城的大范围纷扰。这场骚乱延续了五天,形成43人灭亡,很多修建被毁、很多人受伤。骚乱还舒展到伊利诺伊、北卡罗来纳、田纳西、马里兰州。
  这部电影计划在这场骚乱50周年,也就是2017年上映。

◎获奖情况

  第22届金卫星奖  (2018)
  电影部分 最好原创歌曲(提名)

  第4届豆瓣电影年度榜单  (2017)
  12月最受关注电影(提名)



  1. Video
  2. ID                                       : 1
  3. Format                                   : HEVC
  4. Format/Info                              : High Efficiency Video Coding
  5. Format profile                           : Main [email protected]@High
  6. Codec ID                                 : V_MPEGH/ISO/HEVC
  7. Duration                                 : 2 h 24 min
  8. Bit rate                                 : 27.3 Mb/s
  9. Width                                    : 3 840 pixels
  10. Height                                   : 2 076 pixels
  11. Display aspect ratio                     : 1.85:1
  12. Frame rate mode                          : Constant
  13. Frame rate                               : 23.976 (24000/1001) FPS
  14. Color space                              : YUV
  15. Chroma subsampling                       : 4:2:0
  16. Bit depth                                : 10 bits
  17. Bits/(Pixel*Frame)                       : 0.143
  18. Stream size                              : 27.5GB (91%)
  19. Title                                    : Detroit.2017.2160p.BluRay.x265.10bit.SDR.DTS-HD.MA.5.1-SWTYBLZ
  20. Writing library                          : x265 2.5+4-b4a5bcfe29c7:[Windows][GCC 4.9.3][64 bit] 10bit
  21. Encoding settings                        : cpuid=1173503 / frame-threads=16 / numa-pools=20 / wpp / no-pmode / no-pme / no-psnr / no-ssim / log-level=2 / input-csp=1 / input-res=3840x2076 / interlace=0 / total-frames=0 / level-idc=51 / high-tier=1 / uhd-bd=0 / ref=3 / no-allow-non-conformance / repeat-headers / annexb / aud / hrd / info / hash=0 / no-temporal-layers / no-open-gop / min-keyint=1 / keyint=24 / bframes=4 / b-adapt=2 / b-pyramid / bframe-bias=0 / rc-lookahead=25 / lookahead-slices=4 / scenecut=40 / no-intra-refresh / ctu=64 / min-cu-size=8 / no-rect / no-amp / max-tu-size=32 / tu-inter-depth=1 / tu-intra-depth=1 / limit-tu=0 / rdoq-level=0 / dynamic-rd=0.00 / no-ssim-rd / signhide / no-tskip / nr-intra=0 / nr-inter=0 / no-constrained-intra / strong-intra-smoothing / max-merge=2 / limit-refs=3 / no-limit-modes / me=1 / subme=2 / merange=57 / temporal-mvp / weightp / no-weightb / no-analyze-src-pics / deblock=0:0 / no-sao / no-sao-non-deblock / rd=3 / no-early-skip / rskip / no-fast-intra / no-tskip-fast / no-cu-lossless / no-b-intra / rdpenalty=0 / psy-rd=2.00 / psy-rdoq=0.00 / no-rd-refine / analysis-reuse-mode=0 / no-lossless / cbqpoffs=0 / crqpoffs=0 / rc=crf / crf=20.0 / qcomp=0.60 / qpstep=4 / stats-write=0 / stats-read=0 / vbv-maxrate=160000 / vbv-bufsize=160000 / vbv-init=0.9 / crf-max=0.0 / crf-min=0.0 / ipratio=1.40 / pbratio=1.30 / aq-mode=1 / aq-strength=1.00 / cutree / zone-count=0 / no-strict-cbr / qg-size=32 / no-rc-grain / qpmax=69 / qpmin=0 / no-const-vbv / sar=1 / overscan=0 / videoformat=5 / range=0 / colorprim=2 / transfer=2 / colormatrix=2 / chromaloc=0 / display-window=0 / max-cll=0,0 / min-luma=0 / max-luma=1023 / log2-max-poc-lsb=8 / vui-timing-info / vui-hrd-info / slices=1 / opt-qp-pps / opt-ref-list-length-pps / no-multi-pass-opt-rps / scenecut-bias=0.05 / no-opt-cu-delta-qp / no-aq-motion / no-hdr / no-hdr-opt / no-dhdr10-opt / analysis-reuse-level=5 / scale-factor=0 / refine-intra=0 / refine-inter=0 / refine-mv=0 / no-limit-sao / ctu-info=0
  22. Default                                  : Yes
  23. Forced                                   : No

  24. Audio #1
  25. ID                                       : 2
  26. Format                                   : DTS
  27. Format/Info                              : Digital Theater Systems
  28. Format profile                           : MA / Core
  29. Codec ID                                 : A_DTS
  30. Duration                                 : 2 h 24 min
  31. Bit rate mode                            : Variable / Constant
  32. Bit rate                                 : 1 920 kb/s / 1 509 kb/s
  33. Channel(s)                               : 6 channels
  34. Channel positions                        : Front: L C R, Side: L R, LFE
  35. Sampling rate                            : 48.0 kHz
  36. Frame rate                               : 93.750 FPS (512 SPF)
  37. Bit depth                                : 16 bits
  38. Compression mode                         : Lossless / Lossy
  39. Stream size                              : 1.92GB (6%)
  40. Title                                    : Detroit.2017.2160p.BluRay.x265.10bit.SDR.DTS-HD.MA.5.1-SWTYBLZ
  41. Language                                 : English
  42. Default                                  : Yes
  43. Forced                                   : No

  44. Audio #2
  45. ID                                       : 3
  46. Format                                   : AC-3
  47. Format/Info                              : Audio Coding 3
  48. Codec ID                                 : A_AC3
  49. Duration                                 : 2 h 24 min
  50. Bit rate mode                            : Constant
  51. Bit rate                                 : 640 kb/s
  52. Channel(s)                               : 6 channels
  53. Channel positions                        : Front: L C R, Side: L R, LFE
  54. Sampling rate                            : 48.0 kHz
  55. Frame rate                               : 31.250 FPS (1536 SPF)
  56. Bit depth                                : 16 bits
  57. Compression mode                         : Lossy
  58. Stream size                              : 660 MiB (2%)
  59. Title                                    : Detroit.2017.2160p.BluRay.x265.10bit.SDR.DTS-HD.MA.5.1-SWTYBLZ
  60. Language                                 : English
  61. Service kind                             : Complete Main
  62. Default                                  : No
  63. Forced                                   : No

  64. Text #1
  65. ID                                       : 4
  66. Format                                   : UTF-8
  67. Codec ID                                 : S_TEXT/UTF8
  68. Codec ID/Info                            : UTF-8 Plain Text
  69. Duration                                 : 2 h 11 min
  70. Bit rate                                 : 64 b/s
  71. Count of elements                        : 2102
  72. Stream size                              : 61.7 KiB (0%)
  73. Title                                    : English-SRT
  74. Language                                 : English
  75. Default                                  : Yes
  76. Forced                                   : No

  77. Text #2
  78. ID                                       : 5
  79. Format                                   : UTF-8
  80. Codec ID                                 : S_TEXT/UTF8
  81. Codec ID/Info                            : UTF-8 Plain Text
  82. Duration                                 : 2 h 14 min
  83. Bit rate                                 : 2 b/s
  84. Count of elements                        : 46
  85. Stream size                              : 1.99 KiB (0%)
  86. Title                                    : English-FORCED-SRT
  87. Language                                 : English
  88. Default                                  : No
  89. Forced                                   : No

  90. Text #3
  91. ID                                       : 6
  92. Format                                   : PGS
  93. Muxing mode                              : zlib
  94. Codec ID                                 : S_HDMV/PGS
  95. Codec ID/Info                            : Picture based subtitle format used on BDs/HD-DVDs
  96. Duration                                 : 2 h 14 min
  97. Bit rate                                 : 1 233 b/s
  98. Count of elements                        : 92
  99. Stream size                              : 1.19 MiB (0%)
  100. Title                                    : English-PGS
  101. Language                                 : English
  102. Default                                  : No
  103. Forced                                   : No

  104. Text #4
  105. ID                                       : 7
  106. Format                                   : PGS
  107. Muxing mode                              : zlib
  108. Codec ID                                 : S_HDMV/PGS
  109. Codec ID/Info                            : Picture based subtitle format used on BDs/HD-DVDs
  110. Duration                                 : 2 h 22 min
  111. Bit rate                                 : 34.1 kb/s
  112. Count of elements                        : 3286
  113. Stream size                              : 34.7 MiB (0%)
  114. Title                                    : German-PGS
  115. Language                                 : German
  116. Default                                  : No
  117. Forced                                   : No

  118. Text #5
  119. ID                                       : 8
  120. Format                                   : PGS
  121. Muxing mode                              : zlib
  122. Codec ID                                 : S_HDMV/PGS
  123. Codec ID/Info                            : Picture based subtitle format used on BDs/HD-DVDs
  124. Duration                                 : 2 h 20 min
  125. Bit rate                                 : 31.4 kb/s
  126. Count of elements                        : 3182
  127. Stream size                              : 31.7 MiB (0%)
  128. Title                                    : German-PGS
  129. Language                                 : German
  130. Default                                  : No
  131. Forced                                   : No

  132. Menu
  133. 00:00:00.000                             : en:Chapter 1
  134. 00:04:41.281                             : en:Chapter 2
  135. 00:09:47.128                             : en:Chapter 3
  136. 00:15:42.191                             : en:Chapter 4
  137. 00:26:36.928                             : en:Chapter 5
  138. 00:33:00.186                             : en:Chapter 6
  139. 00:36:44.660                             : en:Chapter 7
  140. 00:41:40.331                             : en:Chapter 8
  141. 00:50:33.530                             : en:Chapter 9
  142. 00:56:02.650                             : en:Chapter 10
  143. 00:59:34.821                             : en:Chapter 11
  144. 01:06:45.501                             : en:Chapter 12
  145. 01:11:20.734                             : en:Chapter 13
  146. 01:14:54.948                             : en:Chapter 14
  147. 01:25:41.386                             : en:Chapter 15
  148. 01:29:25.151                             : en:Chapter 16
  149. 01:33:35.901                             : en:Chapter 17
  150. 01:40:16.010                             : en:Chapter 18
  151. 01:49:31.731                             : en:Chapter 19
  152. 01:52:49.554                             : en:Chapter 20
  153. 01:59:54.103                             : en:Chapter 21
  154. 02:05:24.350                             : en:Chapter 22
  155. 02:10:51.802                             : en:Chapter 23
  156. 02:15:31.665                             : en:Chapter 24

复制代码
复制代码
234446m76615e2hqj561eo.jpg 234446cmps6kdh1p31h754.jpg 234447xuz3cab7f7zcevvc.jpg 234447dlzhxt0ygtsetl09.jpg 234447swuu0s5o0fiwjfp4.jpg






回复

使用道具 举报

蓝光币
821
发表于 2018-4-14 14:08:49 | 显示全部楼层
强烈支持楼主ing……
回复 支持 反对

使用道具 举报

蓝光币
560
发表于 2018-4-14 17:53:10 | 显示全部楼层
看到这帖子真是高兴!
回复 支持 反对

使用道具 举报

懒得打字嘛,点击右侧快捷回复 【右侧内容,后台自定义】
您需要登录后才可以回帖 登录 | 立即加入

本版积分规则

Archiver|小黑屋| 蓝光电影网 |网站地图

Copyright © 2021 Comsenz Inc. Powered by 蓝光电影网

蓝光电影网

本站内容由用户自主分享和转载自互联网,转载目的在于传递更多信息,并不代表本网赞同其观点和对其真实性负责。

如有侵权、违反国家法律政策行为,请联系我们,我们会第一时间及时清除和处理!

举报反馈邮箱:[email protected]

快速回复 返回顶部 返回列表