找回密码

蓝光电影网

查看: 1961|回复: 4

[剧情] 蓝天白云[粤语音轨/内封中字] Somewhere.Beyond.the.Mist.2017.1080p.BluRay.x264-WiKi 7.50GB

[复制链接]
蓝光币
623
发表于 2018-4-15 09:55:36 | 显示全部楼层 |阅读模式
184912vlwfje8jc89ueuil.jpg
◎译  名 蓝天白云
◎片  名 藍天白雲
◎年  代 2017
◎产  地 香港
◎类  别 剧情
◎语  言 粤语
◎上映日期 2017-10-15(釜山电影节)/2018-01-18(香港)
◎IMDb评分  6.2/10 from 32 users
◎IMDb链接  http://www.imdb.com/title/tt7757028/
◎豆瓣评分 6.7/10 from 148 users
◎豆瓣链接 https://movie.douban.com/subject/26352192/
◎片  长 86分钟
◎导  演 张经纬 King Wai Cheung
◎主  演 邓丽欣 Stephy Tang
      梁雍婷 Rachel Leung
      李任燊 Kyle Li
      宝佩如 Baby Bo

◎简  介

  《藍天白雲》故事講述一宗迷離殺人事务。
  中學生Connie (梁雍婷 飾),Connie天生得了心漏病,朋友不多,計劃謀殺雙親卻自知體弱,是以決定將同班同學Eric (顧定軒 飾)拖下水,兩人成為共犯。Connie於弒親後毫無悔意,案件由重案組女探員Angela(鄧麗欣 飾)接手調查。
  新婚的Angela與得了??癡呆症的?親(黃樹棠 飾)及老公Tony(李任燊 飾)一路生活,剛懷孕的Angela看似擁有幸运美滿的家庭,卻發現自己的情緒愈來愈受案件影響,渐渐地她似乎開始领会Connie為何會走上這條不歸路…

◎获奖情况

  第37届香港电影金像奖  (2018)
  最好编剧(提名) 张经纬
  最好女配角(提名) 宝佩如
  最好新演员(提名) 梁雍婷

  第22届釜山国际电影节  (2017)
  新浪潮奖(提名) 张经纬


  1. Video
  2. ID                                       : 1
  3. Format                                   : AVC
  4. Format/Info                              : Advanced Video Codec
  5. Format profile                           : [email protected]
  6. Format settings                          : CABAC / 4 Ref Frames
  7. Format settings, CABAC                   : Yes
  8. Format settings, ReFrames                : 4 frames
  9. Codec ID                                 : V_MPEG4/ISO/AVC
  10. Duration                                 : 1 h 27 min
  11. Bit rate                                 : 11.7 Mb/s
  12. Width                                    : 1 920 pixels
  13. Height                                   : 1 040 pixels
  14. Display aspect ratio                     : 1.85:1
  15. Frame rate mode                          : Constant
  16. Frame rate                               : 24.000 FPS
  17. Color space                              : YUV
  18. Chroma subsampling                       : 4:2:0
  19. Bit depth                                : 8 bits
  20. Scan type                                : Progressive
  21. Bits/(Pixel*Frame)                       : 0.243
  22. Stream size                              : 7.11GB (95%)
  23. Writing library                          : x264 core 129 r2245+704+36 8e61944 tMod+MixAQ [[email protected]:2:0 X86_64]
  24. Encoding settings                        : cabac=1 / ref=4 / deblock=1:-3:-3 / analyse=0x3:0x133 / me=umh / subme=11 / psy=1 / fade_compensate=0.00 / psy_rd=1.05:0.10 / mixed_ref=1 / me_range=64 / chroma_me=1 / trellis=2 / 8x8dct=1 / cqm=0 / deadzone=21,11 / fast_pskip=0 / chroma_qp_offset=-3 / threads=18 / lookahead_threads=3 / sliced_threads=0 / nr=0 / decimate=0 / interlaced=0 / bluray_compat=0 / constrained_intra=0 / fgo=0 / bframes=10 / b_pyramid=2 / b_adapt=2 / b_bias=0 / direct=3 / weightb=1 / open_gop=0 / weightp=2 / keyint=250 / keyint_min=24 / scenecut=40 / intra_refresh=0 / rc=2pass / mbtree=0 / bitrate=11656 / ratetol=1.0 / qcomp=0.70 / qpmin=0 / qpmax=69 / qpstep=4 / cplxblur=20.0 / qblur=0.5 / ip_ratio=1.40 / pb_ratio=1.30 / aq=1 / aq-strength=0.90 / aq-sensitivity=10.00 / aq-ifactor=1.00 / aq-pfactor=1.00 / aq-bfactor=1.00 / aq2=0
  25. Language                                 : Chinese
  26. Default                                  : Yes
  27. Forced                                   : No

  28. Audio
  29. ID                                       : 2
  30. Format                                   : AC-3
  31. Format/Info                              : Audio Coding 3
  32. Codec ID                                 : A_AC3
  33. Duration                                 : 1 h 27 min
  34. Bit rate mode                            : Constant
  35. Bit rate                                 : 640 kb/s
  36. Channel(s)                               : 6 channels
  37. Channel positions                        : Front: L C R, Side: L R, LFE
  38. Sampling rate                            : 48.0 kHz
  39. Frame rate                               : 31.250 FPS (1536 SPF)
  40. Bit depth                                : 16 bits
  41. Compression mode                         : Lossy
  42. Stream size                              : 400 MiB (5%)
  43. Language                                 : Chinese
  44. Service kind                             : Complete Main
  45. Default                                  : Yes
  46. Forced                                   : No

  47. Text #1
  48. ID                                       : 3
  49. Format                                   : UTF-8
  50. Codec ID                                 : S_TEXT/UTF8
  51. Codec ID/Info                            : UTF-8 Plain Text
  52. Duration                                 : 1 h 20 min
  53. Bit rate                                 : 13 b/s
  54. Count of elements                        : 488
  55. Stream size                              : 8.18 KiB (0%)
  56. Title                                    : Simplified
  57. Language                                 : Chinese
  58. Default                                  : Yes
  59. Forced                                   : No

  60. Text #2
  61. ID                                       : 4
  62. Format                                   : UTF-8
  63. Codec ID                                 : S_TEXT/UTF8
  64. Codec ID/Info                            : UTF-8 Plain Text
  65. Duration                                 : 1 h 20 min
  66. Bit rate                                 : 13 b/s
  67. Count of elements                        : 488
  68. Stream size                              : 8.18 KiB (0%)
  69. Title                                    : Traditional
  70. Language                                 : Chinese
  71. Default                                  : No
  72. Forced                                   : No

  73. Menu
  74. 00:00:00.000                             : en:00:00:00.000
  75. 00:07:50.625                             : en:00:07:50.625
  76. 00:15:25.208                             : en:00:15:25.208
  77. 00:21:43.208                             : en:00:21:43.208
  78. 00:28:08.125                             : en:00:28:08.125
  79. 00:35:34.375                             : en:00:35:34.375
  80. 00:46:31.000                             : en:00:46:31.000
  81. 00:53:45.875                             : en:00:53:45.875
  82. 01:01:46.208                             : en:01:01:46.208
  83. 01:06:44.666                             : en:01:06:44.666
  84. 01:16:43.125                             : en:01:16:43.125
  85. 01:23:30.583                             : en:01:23:30.583



复制代码
复制代码
184913ygyjqgvyfimq4t6t.jpg 184914wx13jav0w0nbyjkf.jpg 184915bqp3wu3zwrj3aq8z.jpg






回复

使用道具 举报

蓝光币
821
发表于 2018-4-15 10:41:14 | 显示全部楼层
这么好的资源,谢谢楼主
回复 支持 反对

使用道具 举报

蓝光币
1240
发表于 2018-4-15 21:22:20 | 显示全部楼层

楼主发片辛苦了,万分感谢,好人一生平安!
回复 支持 反对

使用道具 举报

懒得打字嘛,点击右侧快捷回复 【右侧内容,后台自定义】
您需要登录后才可以回帖 登录 | 立即加入

本版积分规则

Archiver|小黑屋| 蓝光电影网 |网站地图

Copyright © 2021 Comsenz Inc. Powered by 蓝光电影网

蓝光电影网

本站内容由用户自主分享和转载自互联网,转载目的在于传递更多信息,并不代表本网赞同其观点和对其真实性负责。

如有侵权、违反国家法律政策行为,请联系我们,我们会第一时间及时清除和处理!

举报反馈邮箱:[email protected]

快速回复 返回顶部 返回列表