找回密码

蓝光电影网

查看: 2798|回复: 8

托斯卡 Tosca.2001.ITALIAN.2160p.BluRay.x265.10bit.SDR.DTS-HD.MA.5.1-SWTYBLZ 32.69GB

[复制链接]
蓝光币
623
发表于 2018-4-15 10:02:34 | 显示全部楼层 |阅读模式
193230d1x9snj2u52xzjps.jpg
◎译  名 托斯卡
◎片  名 Tosca
◎年  代 2001
◎产  地 意大利/法国/英国/德国
◎类  别 歌舞/剧情
◎语  言 意大利语
◎上映日期 2001-09-09
◎IMDb评分  7.4/10 from 351 users
◎IMDb链接  http://www.imdb.com/title/tt0240122/
◎豆瓣评分 8.7/10 from 56 users
◎豆瓣链接 https://movie.douban.com/subject/1308182/
◎片  长 126 分钟
◎导  演 伯努瓦·雅克 Beno?t Jacquot
◎主  演 安琪拉·葛姬 Angela Gheorghiu
      阿兰尼亚 Roberto Alagna
      Ruggero Raimondi

◎简  介

  普契尼的《托斯卡》可所以個廉價的煽情戲,一部糅合著愛情、政治與慾望的浅显劇-假如沒有他那扣民气弦的華麗樂章,與撕裂的神經末梢融和分歧的音符的話。把這樣一部膾炙生齿的歌劇搬上銀幕,也幾乎註定要令導演焦頭爛額。但是奇蹟出現了,班諾瓦.積高的《托斯卡》應是十多年來少數歌劇電影使人滿意的一部。積高以三種途徑(以華麗的攝影拍攝全劇的戲肉,十六毫米的黑白胶卷拍攝錄音過程,及以錄像俯瞰歷史現場)來閱讀普契尼的傑作,不单叫人一新线人,原劇的迫力更絲绝不減。原籍羅馬尼亞的女低音安琪拉.葛姬演繹的托斯卡,更是一次顛峰表演。
  Jacquot transposes Giacomo Puccini's famous opera to film in this stunningly filmed, sung and performed production featuring two of today's hottest opera stars. The films starts with black-and-white footage of the recording studio. He then brings the action forward on the sets, but makes frequent cuts to the studio. This avoids the sense of having filmed a staged production, and establishes an air of non-reality. Jacquot then adds a further visual dimension to the film by filming dazzling sequences of gardens and the night sky in Italy using a video camera. The two singers are also a couple in real life, a fact which adds emotional depth to their personas.
  Source: 26th HKIFF (2002)

  1. Video
  2. ID                                       : 1
  3. Format                                   : HEVC
  4. Format/Info                              : High Efficiency Video Coding
  5. Format profile                           : Main [email protected]@High
  6. Codec ID                                 : V_MPEGH/ISO/HEVC
  7. Duration                                 : 1 h 59 min
  8. Bit rate                                 : 34.2 Mb/s
  9. Width                                    : 3 840 pixels
  10. Height                                   : 2 076 pixels
  11. Display aspect ratio                     : 1.85:1
  12. Frame rate mode                          : Constant
  13. Frame rate                               : 25.000 FPS
  14. Color space                              : YUV
  15. Chroma subsampling                       : 4:2:0
  16. Bit depth                                : 10 bits
  17. Bits/(Pixel*Frame)                       : 0.171
  18. Stream size                              : 28.6GB (88%)
  19. Title                                    : Tosca.2001.ITALIAN.2160p.BluRay.x265.10bit.SDR.DTS-HD.MA.5.1-SWTYBLZ
  20. Writing library                          : x265 2.5+4-b4a5bcfe29c7:[Windows][GCC 4.9.3][64 bit] 10bit
  21. Encoding settings                        : cpuid=1173503 / frame-threads=16 / numa-pools=24,24,24,24 / wpp / no-pmode / no-pme / no-psnr / no-ssim / log-level=2 / input-csp=1 / input-res=3840x2076 / interlace=0 / total-frames=0 / level-idc=51 / high-tier=1 / uhd-bd=0 / ref=3 / no-allow-non-conformance / repeat-headers / annexb / aud / hrd / info / hash=0 / no-temporal-layers / no-open-gop / min-keyint=1 / keyint=24 / bframes=4 / b-adapt=2 / b-pyramid / bframe-bias=0 / rc-lookahead=25 / lookahead-slices=4 / scenecut=40 / no-intra-refresh / ctu=64 / min-cu-size=8 / no-rect / no-amp / max-tu-size=32 / tu-inter-depth=1 / tu-intra-depth=1 / limit-tu=0 / rdoq-level=0 / dynamic-rd=0.00 / no-ssim-rd / signhide / no-tskip / nr-intra=0 / nr-inter=0 / no-constrained-intra / strong-intra-smoothing / max-merge=2 / limit-refs=3 / no-limit-modes / me=1 / subme=2 / merange=57 / temporal-mvp / weightp / no-weightb / no-analyze-src-pics / deblock=0:0 / no-sao / no-sao-non-deblock / rd=3 / no-early-skip / rskip / no-fast-intra / no-tskip-fast / no-cu-lossless / no-b-intra / rdpenalty=0 / psy-rd=2.00 / psy-rdoq=0.00 / no-rd-refine / analysis-reuse-mode=0 / no-lossless / cbqpoffs=0 / crqpoffs=0 / rc=crf / crf=20.0 / qcomp=0.60 / qpstep=4 / stats-write=0 / stats-read=0 / vbv-maxrate=160000 / vbv-bufsize=160000 / vbv-init=0.9 / crf-max=0.0 / crf-min=0.0 / ipratio=1.40 / pbratio=1.30 / aq-mode=1 / aq-strength=1.00 / cutree / zone-count=0 / no-strict-cbr / qg-size=32 / no-rc-grain / qpmax=69 / qpmin=0 / no-const-vbv / sar=1 / overscan=0 / videoformat=5 / range=0 / colorprim=2 / transfer=2 / colormatrix=2 / chromaloc=0 / display-window=0 / max-cll=0,0 / min-luma=0 / max-luma=1023 / log2-max-poc-lsb=8 / vui-timing-info / vui-hrd-info / slices=1 / opt-qp-pps / opt-ref-list-length-pps / no-multi-pass-opt-rps / scenecut-bias=0.05 / no-opt-cu-delta-qp / no-aq-motion / no-hdr / no-hdr-opt / no-dhdr10-opt / analysis-reuse-level=5 / scale-factor=0 / refine-intra=0 / refine-inter=0 / refine-mv=0 / no-limit-sao / ctu-info=0
  22. Default                                  : Yes
  23. Forced                                   : No

  24. Audio #1
  25. ID                                       : 2
  26. Format                                   : DTS
  27. Format/Info                              : Digital Theater Systems
  28. Format profile                           : MA / Core
  29. Codec ID                                 : A_DTS
  30. Duration                                 : 1 h 59 min
  31. Bit rate mode                            : Variable / Constant
  32. Bit rate                                 : 4 041 kb/s / 1 509 kb/s
  33. Channel(s)                               : 6 channels
  34. Channel positions                        : Front: L C R, Side: L R, LFE
  35. Sampling rate                            : 48.0 kHz
  36. Frame rate                               : 93.750 FPS (512 SPF)
  37. Bit depth                                : 24 bits
  38. Compression mode                         : Lossless / Lossy
  39. Stream size                              : 3.38GB (10%)
  40. Title                                    : Tosca.2001.ITALIAN.2160p.BluRay.x265.10bit.SDR.DTS-HD.MA.5.1-SWTYBLZ
  41. Language                                 : Italian
  42. Default                                  : Yes
  43. Forced                                   : No

  44. Audio #2
  45. ID                                       : 3
  46. Format                                   : AC-3
  47. Format/Info                              : Audio Coding 3
  48. Codec ID                                 : A_AC3
  49. Duration                                 : 1 h 59 min
  50. Bit rate mode                            : Constant
  51. Bit rate                                 : 640 kb/s
  52. Channel(s)                               : 6 channels
  53. Channel positions                        : Front: L C R, Side: L R, LFE
  54. Sampling rate                            : 48.0 kHz
  55. Frame rate                               : 31.250 FPS (1536 SPF)
  56. Bit depth                                : 16 bits
  57. Compression mode                         : Lossy
  58. Stream size                              : 548 MiB (2%)
  59. Title                                    : Tosca.2001.ITALIAN.2160p.BluRay.x265.10bit.SDR.DTS-HD.MA.5.1-SWTYBLZ
  60. Language                                 : Italian
  61. Service kind                             : Complete Main
  62. Default                                  : No
  63. Forced                                   : No

  64. Text #1
  65. ID                                       : 4
  66. Format                                   : UTF-8
  67. Codec ID                                 : S_TEXT/UTF8
  68. Codec ID/Info                            : UTF-8 Plain Text
  69. Duration                                 : 1 h 53 min
  70. Bit rate                                 : 29 b/s
  71. Count of elements                        : 905
  72. Stream size                              : 24.4 KiB (0%)
  73. Title                                    : English-SRT
  74. Language                                 : English
  75. Default                                  : Yes
  76. Forced                                   : No

  77. Text #2
  78. ID                                       : 5
  79. Format                                   : PGS
  80. Muxing mode                              : zlib
  81. Codec ID                                 : S_HDMV/PGS
  82. Codec ID/Info                            : Picture based subtitle format used on BDs/HD-DVDs
  83. Duration                                 : 1 h 53 min
  84. Bit rate                                 : 17.2 kb/s
  85. Count of elements                        : 1814
  86. Stream size                              : 14.0 MiB (0%)
  87. Title                                    : English-PGS
  88. Language                                 : English
  89. Default                                  : No
  90. Forced                                   : No

  91. Text #3
  92. ID                                       : 6
  93. Format                                   : PGS
  94. Muxing mode                              : zlib
  95. Codec ID                                 : S_HDMV/PGS
  96. Codec ID/Info                            : Picture based subtitle format used on BDs/HD-DVDs
  97. Duration                                 : 1 h 53 min
  98. Bit rate                                 : 15.3 kb/s
  99. Count of elements                        : 1824
  100. Stream size                              : 12.4 MiB (0%)
  101. Title                                    : Italian-PGS
  102. Language                                 : Italian
  103. Default                                  : No
  104. Forced                                   : No

  105. Text #4
  106. ID                                       : 7
  107. Format                                   : PGS
  108. Muxing mode                              : zlib
  109. Codec ID                                 : S_HDMV/PGS
  110. Codec ID/Info                            : Picture based subtitle format used on BDs/HD-DVDs
  111. Duration                                 : 1 h 53 min
  112. Bit rate                                 : 18.7 kb/s
  113. Count of elements                        : 1814
  114. Stream size                              : 15.2 MiB (0%)
  115. Title                                    : German-PGS
  116. Language                                 : German
  117. Default                                  : No
  118. Forced                                   : No

  119. Text #5
  120. ID                                       : 8
  121. Format                                   : PGS
  122. Muxing mode                              : zlib
  123. Codec ID                                 : S_HDMV/PGS
  124. Codec ID/Info                            : Picture based subtitle format used on BDs/HD-DVDs
  125. Duration                                 : 1 h 53 min
  126. Bit rate                                 : 17.4 kb/s
  127. Count of elements                        : 1814
  128. Stream size                              : 14.2 MiB (0%)
  129. Title                                    : French-PGS
  130. Language                                 : French
  131. Default                                  : No
  132. Forced                                   : No

  133. Text #6
  134. ID                                       : 9
  135. Format                                   : PGS
  136. Muxing mode                              : zlib
  137. Codec ID                                 : S_HDMV/PGS
  138. Codec ID/Info                            : Picture based subtitle format used on BDs/HD-DVDs
  139. Duration                                 : 1 h 53 min
  140. Bit rate                                 : 16.8 kb/s
  141. Count of elements                        : 1814
  142. Stream size                              : 13.7 MiB (0%)
  143. Title                                    : Spanish-PGS
  144. Language                                 : Spanish
  145. Default                                  : No
  146. Forced                                   : No

  147. Text #7
  148. ID                                       : 10
  149. Format                                   : PGS
  150. Muxing mode                              : zlib
  151. Codec ID                                 : S_HDMV/PGS
  152. Codec ID/Info                            : Picture based subtitle format used on BDs/HD-DVDs
  153. Duration                                 : 1 h 53 min
  154. Bit rate                                 : 17.3 kb/s
  155. Count of elements                        : 1814
  156. Stream size                              : 14.1 MiB (0%)
  157. Title                                    : Korean-PGS
  158. Language                                 : Korean
  159. Default                                  : No
  160. Forced                                   : No

  161. Text #8
  162. ID                                       : 11
  163. Format                                   : PGS
  164. Muxing mode                              : zlib
  165. Codec ID                                 : S_HDMV/PGS
  166. Codec ID/Info                            : Picture based subtitle format used on BDs/HD-DVDs
  167. Duration                                 : 1 h 53 min
  168. Bit rate                                 : 17.1 kb/s
  169. Count of elements                        : 1822
  170. Stream size                              : 13.9 MiB (0%)
  171. Title                                    : Japanese-PGS
  172. Language                                 : Japanese
  173. Default                                  : No
  174. Forced                                   : No

  175. Menu
  176. 00:00:00.000                             : en:Chapter 1
  177. 00:00:31.000                             : en:Chapter 2
  178. 00:02:47.720                             : en:Chapter 3
  179. 00:05:04.000                             : en:Chapter 4
  180. 00:06:11.000                             : en:Chapter 5
  181. 00:10:02.720                             : en:Chapter 6
  182. 00:11:47.000                             : en:Chapter 7
  183. 00:13:44.000                             : en:Chapter 8
  184. 00:14:43.000                             : en:Chapter 9
  185. 00:17:15.000                             : en:Chapter 10
  186. 00:19:05.000                             : en:Chapter 11
  187. 00:20:46.000                             : en:Chapter 12
  188. 00:24:44.000                             : en:Chapter 13
  189. 00:28:17.280                             : en:Chapter 14
  190. 00:29:58.400                             : en:Chapter 15
  191. 00:33:34.000                             : en:Chapter 16
  192. 00:36:44.520                             : en:Chapter 17
  193. 00:38:48.000                             : en:Chapter 18
  194. 00:40:55.000                             : en:Chapter 19
  195. 00:45:27.000                             : en:Chapter 20
  196. 00:46:53.000                             : en:Chapter 21
  197. 00:48:43.000                             : en:Chapter 22
  198. 00:49:58.000                             : en:Chapter 23
  199. 00:51:07.000                             : en:Chapter 24
  200. 00:53:33.600                             : en:Chapter 25
  201. 00:55:22.000                             : en:Chapter 26
  202. 01:00:39.000                             : en:Chapter 27
  203. 01:04:12.080                             : en:Chapter 28
  204. 01:05:42.000                             : en:Chapter 29
  205. 01:06:59.000                             : en:Chapter 30
  206. 01:08:24.000                             : en:Chapter 31
  207. 01:12:58.000                             : en:Chapter 32
  208. 01:16:28.000                             : en:Chapter 33
  209. 01:20:09.000                             : en:Chapter 34
  210. 01:22:20.000                             : en:Chapter 35
  211. 01:27:30.000                             : en:Chapter 36
  212. 01:29:17.000                             : en:Chapter 37
  213. 01:30:47.200                             : en:Chapter 38
  214. 01:33:20.000                             : en:Chapter 39
  215. 01:35:07.000                             : en:Chapter 40
  216. 01:36:49.000                             : en:Chapter 41
  217. 01:37:57.000                             : en:Chapter 42
  218. 01:41:05.720                             : en:Chapter 43
  219. 01:43:40.000                             : en:Chapter 44
  220. 01:45:20.000                             : en:Chapter 45
  221. 01:49:03.000                             : en:Chapter 46
  222. 01:51:09.000                             : en:Chapter 47
  223. 01:51:49.000                             : en:Chapter 48
  224. 01:54:04.720                             : en:Chapter 49
  225. 01:55:23.000                             : en:Chapter 50


复制代码
复制代码
193231vtmav0h0irgbmuia.jpg 193232ukjrrrv1rxr0tq51.jpg 193232jk0rmp0bvmzmmmdz.jpg 193232bhv184tu0myhu1gy.jpg 193233nhnih5d4die348g4.jpg 193233f59tzill4mq5qw96.jpg 193234rj4d5y1ssok6zy16.jpg







回复

使用道具 举报

蓝光币
821
发表于 2018-4-15 10:44:29 | 显示全部楼层
强烈支持楼主ing……
回复 支持 反对

使用道具 举报

蓝光币
76
发表于 2018-4-15 13:05:22 | 显示全部楼层
强烈支持楼主ing……
回复 支持 反对

使用道具 举报

蓝光币
57
发表于 2018-4-16 09:55:44 | 显示全部楼层
强烈支持楼主ing……
我要金豆豆~~~~~
回复 支持 反对

使用道具 举报

蓝光币
821
发表于 2018-4-16 16:13:06 | 显示全部楼层
强烈支持楼主ing……
回复 支持 反对

使用道具 举报

蓝光币
821
发表于 2018-4-21 22:32:38 | 显示全部楼层
强烈支持楼主ing……
回复 支持 反对

使用道具 举报

蓝光币
189
发表于 2018-5-5 19:34:10 | 显示全部楼层
强烈支持楼主ing……
回复 支持 反对

使用道具 举报

蓝光币
325
发表于 2018-7-28 15:38:49 | 显示全部楼层
强烈支持楼主ing……
回复 支持 反对

使用道具 举报

蓝光币
325
发表于 2018-8-1 10:40:31 | 显示全部楼层
激动人心,无法言表!
回复 支持 反对

使用道具 举报

懒得打字嘛,点击右侧快捷回复 【右侧内容,后台自定义】
您需要登录后才可以回帖 登录 | 立即加入

本版积分规则

Archiver|小黑屋| 蓝光电影网 |网站地图

Copyright © 2021 Comsenz Inc. Powered by 蓝光电影网

蓝光电影网

本站内容由用户自主分享和转载自互联网,转载目的在于传递更多信息,并不代表本网赞同其观点和对其真实性负责。

如有侵权、违反国家法律政策行为,请联系我们,我们会第一时间及时清除和处理!

举报反馈邮箱:[email protected]

快速回复 返回顶部 返回列表