找回密码

蓝光电影网

查看: 1621|回复: 2

[动作] 深海狂鲨2/水深火热2 Deep.Blue.Sea.2.2018.720p.BluRay.x264.DTS-HDC 5.15GB

[复制链接]
蓝光币
623
发表于 2018-4-15 23:48:53 | 显示全部楼层 |阅读模式
113314gkf8vcuuv4262qc3.jpg
◎译  名 深海狂鲨2/水深炽热2/深海变种2/深蓝的陆地2/深海恶鲨2
◎片  名 deep blue sea 2
◎年  代 2018
◎产  地 美国
◎类  别 行动/科幻/可骇
◎语  言 英语
◎上映日期 2018-04-12(收集)/2018-04-17(美国)
◎豆瓣评分 /10 from 0 users
◎豆瓣链接 https://movie.douban.com/subject/30190449/
◎片  长 94分钟
◎导  演 Darin Scott
◎主  演 丹尼尔·萨夫雷 Danielle Savre
      罗勃·梅耶斯 Rob Mayes
      迈克尔·比奇 Michael Beach
      Nathan Lynn
      Kim Syster
      Jeremy Boado
      Adrian Collins
      Cameron Robertson
      达伦-迈耶 Darron Meyer
      Marc Hyland
      Tamer Burjaq
      Gino Lee
      Liza Scholtz
      Kelton Goertz
      Dominique Mabille

◎简  介

  从最新公布的预告来看,影迷们可以期待和1999年第一部一样的水下“斗”鲨和血腥的场景。
  在续集合,丹尼尔·萨夫雷(Danielle Savre)饰演的鲨鱼保育人士被约请来为一个和鲨鱼有关的高度机密项目做顾问,而该项目幕后的老板则是由迈克尔·比奇(Michael Beach)饰演的 制药界亿万富翁。
  本片的创意履行曾暗示,“这是一部真正意义上的续集。我们希望继续保存《深海狂鲨》的精华......续集合被用来做研讨的鲨鱼来自第一部”。
  “我们已经赋予了片中的鲨鱼配角一本性情并寄希望影迷能接管这样的设定,由于这很有助于故事论述而且还会到达第一部没有的一种结果。《深海狂鲨2》起头进度能够有点慢但一旦到了关键的情节点剧情就会起头进入佳境。”


  1. Video
  2. ID                                       : 1
  3. Format                                   : AVC
  4. Format/Info                              : Advanced Video Codec
  5. Format profile                           : [email protected]
  6. Format settings                          : CABAC / 9 Ref Frames
  7. Format settings, CABAC                   : Yes
  8. Format settings, ReFrames                : 9 frames
  9. Codec ID                                 : V_MPEG4/ISO/AVC
  10. Duration                                 : 1 h 33 min
  11. Bit rate                                 : 6 326 kb/s
  12. Width                                    : 1 280 pixels
  13. Height                                   : 720 pixels
  14. Display aspect ratio                     : 16:9
  15. Frame rate mode                          : Constant
  16. Frame rate                               : 23.976 (24000/1001) FPS
  17. Color space                              : YUV
  18. Chroma subsampling                       : 4:2:0
  19. Bit depth                                : 8 bits
  20. Scan type                                : Progressive
  21. Bits/(Pixel*Frame)                       : 0.286
  22. Stream size                              : 4.15GB (81%)
  23. Title                                    : Deep.Blue.Sea.2.2018.720p.BluRay.x264.DTS-HDC
  24. Writing library                          : x264 core 148 r2665kMod a01e339
  25. Encoding settings                        : cabac=1 / ref=9 / deblock=1:-3:-3 / analyse=0x3:0x133 / me=umh / subme=11 / psy=1 / fade_compensate=0.00 / psy_rd=1.00:0.00 / mixed_ref=1 / me_range=48 / chroma_me=1 / trellis=2 / 8x8dct=1 / cqm=0 / deadzone=21,11 / fast_pskip=0 / chroma_qp_offset=-2 / threads=22 / lookahead_threads=5 / sliced_threads=0 / nr=0 / decimate=0 / interlaced=0 / bluray_compat=0 / constrained_intra=0 / fgo=0 / bframes=11 / b_pyramid=2 / b_adapt=2 / b_bias=0 / direct=3 / weightb=1 / open_gop=0 / weightp=2 / keyint=240 / keyint_min=24 / scenecut=40 / intra_refresh=0 / rc_lookahead=40 / rc=crf / mbtree=0 / crf=18.6000 / qcomp=0.70 / qpmin=0 / qpmax=69 / qpstep=4 / vbv_maxrate=40000 / vbv_bufsize=30000 / crf_max=0.0 / nal_hrd=none / filler=0 / ip_ratio=1.20 / pb_ratio=1.20 / aq=3:0.80
  26. Language                                 : English
  27. Default                                  : Yes
  28. Forced                                   : No

  29. Audio
  30. ID                                       : 2
  31. Format                                   : DTS
  32. Format/Info                              : Digital Theater Systems
  33. Codec ID                                 : A_DTS
  34. Duration                                 : 1 h 33 min
  35. Bit rate mode                            : Constant
  36. Bit rate                                 : 1 509 kb/s
  37. Channel(s)                               : 6 channels
  38. Channel positions                        : Front: L C R, Side: L R, LFE
  39. Sampling rate                            : 48.0 kHz
  40. Frame rate                               : 93.750 FPS (512 SPF)
  41. Bit depth                                : 24 bits
  42. Compression mode                         : Lossy
  43. Stream size                              : 1 014 MiB (19%)
  44. Title                                    : Deep.Blue.Sea.2.2018.720p.BluRay.x264.DTS-HDC
  45. Language                                 : English
  46. Default                                  : Yes
  47. Forced                                   : No

  48. Text
  49. ID                                       : 3
  50. Format                                   : UTF-8
  51. Codec ID                                 : S_TEXT/UTF8
  52. Codec ID/Info                            : UTF-8 Plain Text
  53. Duration                                 : 1 h 32 min
  54. Bit rate                                 : 51 b/s
  55. Count of elements                        : 1035
  56. Stream size                              : 34.8 KiB (0%)
  57. Language                                 : English
  58. Default                                  : Yes
  59. Forced                                   : No



复制代码
复制代码
113315ettmp47t8isft2po.jpg 113315y4766xfx2g4bgcoe.jpg 113316z4txfr4ef27r0d42.jpg






回复

使用道具 举报

蓝光币
918
发表于 2018-4-16 15:17:01 | 显示全部楼层
1999年那部非常精彩,印象深刻,希望这部不会让人失望
回复 支持 反对

使用道具 举报

蓝光币
1324
发表于 2018-4-18 14:05:30 | 显示全部楼层
谢谢楼主分享!
回复 支持 反对

使用道具 举报

懒得打字嘛,点击右侧快捷回复 【右侧内容,后台自定义】
您需要登录后才可以回帖 登录 | 立即加入

本版积分规则

Archiver|小黑屋| 蓝光电影网 |网站地图

Copyright © 2021 Comsenz Inc. Powered by 蓝光电影网

蓝光电影网

本站内容由用户自主分享和转载自互联网,转载目的在于传递更多信息,并不代表本网赞同其观点和对其真实性负责。

如有侵权、违反国家法律政策行为,请联系我们,我们会第一时间及时清除和处理!

举报反馈邮箱:[email protected]

快速回复 返回顶部 返回列表