找回密码

蓝光电影网

查看: 967|回复: 2

[动画] 自杀小队:严厉惩罚 Suicide.Squad.Hell.to.Pay.2018.720p.BluRay.x264.DTS-MTeam 2.76GB

[复制链接]
蓝光币
623
发表于 2018-4-15 23:50:07 | 显示全部楼层 |阅读模式
113725exvbg8hneal8b8zl.jpg
◎译  名 自杀小队:严厉赏罚
◎片  名 Suicide Squad: Hell to Pay
◎年  代 2018
◎产  地 美国
◎类  别 行动/动画
◎语  言 英语
◎上映日期 2018-03-27(美国)
◎IMDb评分  7.3/10 from 1,661 users
◎IMDb链接  http://www.imdb.com/title/tt7167602/
◎豆瓣评分 7.4/10 from 117 users
◎豆瓣链接 https://movie.douban.com/subject/27098363/
◎片  长 86分钟
◎导  演 刘山姆 Sam Liu
◎主  演 克里斯蒂安·史莱特 Christian Slater
      C·托马斯·豪威尔 C. Thomas Howell
      塔拉·斯特朗 Tara Strong
      丹妮亚·拉米雷兹 Dania Ramirez
      凡妮莎·威廉斯 Vanessa Williams
      比利·布朗 Billy Brown
      克里斯汀·鲍尔 Kristin Bauer
      吉迪恩·埃默里 Gideon Emery
      詹姆斯·乌尔班尼亚克 James Urbaniak
      吉姆·皮里 Jim Pirri
      格雷戈·格伦伯格 Greg Grunberg
      特雷弗·德瓦 Trevor Devall
      马修·默瑟 Matthew Mercer
      Julie Nathanson
      Dave Fennoy
      Cissy Jones
      Natalie Lander
      Dave Boat

◎简  介

  DC动画电影《自杀小队:严厉赏罚》(Suicide Squad: Hell to Pay)公布预告,小丑女、死射、冰霜杀手、铜头蛇、盘旋镖队长、铜虎组成小队,阿曼达·沃勒派遣他们去找回一个奥秘物件——为此他们愿意牺牲人命,而小队很快发现他们面临着其他团伙的应战。
  克里斯汀·史莱特、C·托马斯·豪威尔、塔拉·斯特朗、连姆·麦肯泰尔、比利·布朗、克里斯汀·鲍尔、凡妮莎·威廉姆斯、丹妮亚·拉米雷兹等介入配音,Sam Liu(《蝙蝠侠:致命玩笑》《绿灯侠》动画系列)执导,今春刊行数字版、DVD和蓝光碟。


  1. Video
  2. ID                                       : 1
  3. Format                                   : AVC
  4. Format/Info                              : Advanced Video Codec
  5. Format profile                           : [email protected]
  6. Format settings                          : CABAC / 9 Ref Frames
  7. Format settings, CABAC                   : Yes
  8. Format settings, ReFrames                : 9 frames
  9. Codec ID                                 : V_MPEG4/ISO/AVC
  10. Duration                                 : 1 h 26 min
  11. Bit rate                                 : 3 073 kb/s
  12. Width                                    : 1 280 pixels
  13. Height                                   : 720 pixels
  14. Display aspect ratio                     : 16:9
  15. Frame rate mode                          : Constant
  16. Frame rate                               : 23.976 (24000/1001) FPS
  17. Color space                              : YUV
  18. Chroma subsampling                       : 4:2:0
  19. Bit depth                                : 8 bits
  20. Scan type                                : Progressive
  21. Bits/(Pixel*Frame)                       : 0.139
  22. Stream size                              : 1.85GB (67%)
  23. Title                                    : Suicide.Squad.Hell.to.Pay.2018.720p.BluRay.x264.DTS-MT
  24. Writing library                          : x264 core 155 r2901 7d0ff22
  25. Encoding settings                        : cabac=1 / ref=9 / deblock=1:-3:-3 / analyse=0x3:0x113 / me=umh / subme=10 / psy=1 / psy_rd=1.00:0.05 / mixed_ref=1 / me_range=32 / chroma_me=1 / trellis=2 / 8x8dct=1 / cqm=0 / deadzone=21,11 / fast_pskip=0 / chroma_qp_offset=-2 / threads=12 / lookahead_threads=2 / sliced_threads=0 / nr=0 / decimate=1 / interlaced=0 / bluray_compat=0 / constrained_intra=0 / bframes=8 / b_pyramid=2 / b_adapt=2 / b_bias=0 / direct=3 / weightb=1 / open_gop=0 / weightp=2 / keyint=250 / keyint_min=23 / scenecut=40 / intra_refresh=0 / rc_lookahead=40 / rc=crf / mbtree=0 / crf=15.0 / qcomp=0.60 / qpmin=0 / qpmax=69 / qpstep=4 / vbv_maxrate=30000 / vbv_bufsize=30000 / crf_max=0.0 / nal_hrd=none / filler=0 / ip_ratio=1.40 / pb_ratio=1.30 / aq=3:1.00
  26. Default                                  : Yes
  27. Forced                                   : No
  28. Color range                              : Limited
  29. Matrix coefficients                      : BT.709

  30. Audio
  31. ID                                       : 2
  32. Format                                   : DTS
  33. Format/Info                              : Digital Theater Systems
  34. Codec ID                                 : A_DTS
  35. Duration                                 : 1 h 26 min
  36. Bit rate mode                            : Constant
  37. Bit rate                                 : 1 509 kb/s
  38. Channel(s)                               : 6 channels
  39. Channel positions                        : Front: L C R, Side: L R, LFE
  40. Sampling rate                            : 48.0 kHz
  41. Frame rate                               : 93.750 FPS (512 SPF)
  42. Bit depth                                : 24 bits
  43. Compression mode                         : Lossy
  44. Stream size                              : 929 MiB (33%)
  45. Title                                    : Suicide.Squad.Hell.to.Pay.2018.720p.BluRay.x264.DTS-MT
  46. Language                                 : English
  47. Default                                  : Yes
  48. Forced                                   : No

  49. Text
  50. ID                                       : 3
  51. Format                                   : UTF-8
  52. Codec ID                                 : S_TEXT/UTF8
  53. Codec ID/Info                            : UTF-8 Plain Text
  54. Duration                                 : 1 h 25 min
  55. Bit rate                                 : 44 b/s
  56. Count of elements                        : 853
  57. Stream size                              : 28.0 KiB (0%)
  58. Language                                 : English
  59. Default                                  : Yes
  60. Forced                                   : No



复制代码
复制代码
113726a9ploqawoa4ymym0.jpg 113726csu9s79s290fxw9f.jpg 113727n92ar2z2oskb2las.jpg






回复

使用道具 举报

蓝光币
1328
发表于 2018-4-18 14:04:21 | 显示全部楼层
谢谢楼主分享!
回复 支持 反对

使用道具 举报

懒得打字嘛,点击右侧快捷回复 【右侧内容,后台自定义】
您需要登录后才可以回帖 登录 | 立即加入

本版积分规则

Archiver|小黑屋| 蓝光电影网 |网站地图

Copyright © 2021 Comsenz Inc. Powered by 蓝光电影网

蓝光电影网

本站内容由用户自主分享和转载自互联网,转载目的在于传递更多信息,并不代表本网赞同其观点和对其真实性负责。

如有侵权、违反国家法律政策行为,请联系我们,我们会第一时间及时清除和处理!

举报反馈邮箱:[email protected]

快速回复 返回顶部 返回列表