找回密码

蓝光电影网

查看: 1191|回复: 2

[剧情] 处女之死/折翼天使 The.Virgin.Suicides.1999.REMASTERED.1080p.BluRay.x264-DEPTH 9.84GB

[复制链接]
蓝光币
623
发表于 2018-4-16 00:06:20 | 显示全部楼层 |阅读模式
113544rogggrhlquqrgr5w.jpg
◎译  名 童贞之死/折翼天使/锁不住的青春/灭亡日志/童贞自杀/女生向前走/少女的美丽与忧愁
◎片  名 The Virgin Suicides
◎年  代 1999
◎产  地 美国
◎类  别 剧情/恋爱/悬疑
◎语  言 英语
◎上映日期 1999-05-19(戛纳电影节)
◎IMDb评分  7.2/10 from 128,288 users
◎IMDb链接  http://www.imdb.com/title/tt0159097/
◎豆瓣评分 7.5/10 from 15,649 users
◎豆瓣链接 https://movie.douban.com/subject/1297894/
◎片  长 97 分钟/90 分钟(德国电视版)
◎导  演 索菲亚·科波拉 Sofia Coppola
◎主  演 克斯汀·邓斯特 Kirsten Dunst
      凯瑟琳·特纳 Kathleen Turner
      乔什·哈奈特 Josh Hartnett
      詹姆斯·伍兹 James Woods
      海登·克里斯滕森 Hayden Christensen
      A·J·库克 A.J. Cook
      汉娜·豪尔 Hanna Hall

◎简  介

  一把冷冷的男声带来了故事的起头。青春期对里斯本一家的5个豆蔻女儿们来说,是一道迈不外的槛。首先自杀的是最小的女儿赛西利娅(汉娜霍尔 Hanna R. Hall 饰)。她变得懦弱低落,想竣事生命,这一切都没有道得明的缘由。怙恃以为,让她去和男孩交往,会改良情况。但是,赛西利娅还是挑选了离他人生。
  和男孩交往频仍,性情纵容的,是另一个女儿勒克斯(克尔斯滕·邓斯特 Kirsten Dunst 饰)。勒克斯熟悉花花令郎特里普,被和他发生了关系,却终极被特里普抛弃。里斯本怙恃惧怕再次落空女儿,因而落空了理性。他们把四个女儿困在家中,给她们最周密的庇护。但是自杀的悲剧就像疫情一样,敏捷的分散。


  1. Video
  2. ID                                       : 1
  3. Format                                   : AVC
  4. Format/Info                              : Advanced Video Codec
  5. Format profile                           : [email protected]
  6. Format settings                          : CABAC / 4 Ref Frames
  7. Format settings, CABAC                   : Yes
  8. Format settings, RefFrames               : 4 frames
  9. Codec ID                                 : V_MPEG4/ISO/AVC
  10. Duration                                 : 1 h 37 min
  11. Bit rate                                 : 13.0 Mb/s
  12. Width                                    : 1 808 pixels
  13. Height                                   : 1 080 pixels
  14. Display aspect ratio                     : 5:3
  15. Frame rate mode                          : Constant
  16. Frame rate                               : 23.976 (24000/1001) FPS
  17. Color space                              : YUV
  18. Chroma subsampling                       : 4:2:0
  19. Bit depth                                : 8 bits
  20. Scan type                                : Progressive
  21. Bits/(Pixel*Frame)                       : 0.278
  22. Stream size                              : 8.80GB (90%)
  23. Writing library                          : x264 core 155 r2901 7d0ff22
  24. Encoding settings                        : cabac=1 / ref=4 / deblock=1:-3:-3 / analyse=0x3:0x133 / me=umh / subme=9 / psy=1 / psy_rd=1.00:0.15 / mixed_ref=1 / me_range=16 / chroma_me=1 / trellis=2 / 8x8dct=1 / cqm=0 / deadzone=21,11 / fast_pskip=1 / chroma_qp_offset=-3 / threads=30 / lookahead_threads=2 / sliced_threads=0 / nr=0 / decimate=1 / interlaced=0 / bluray_compat=0 / constrained_intra=0 / bframes=3 / b_pyramid=2 / b_adapt=2 / b_bias=0 / direct=3 / weightb=1 / open_gop=0 / weightp=2 / keyint=240 / keyint_min=24 / scenecut=40 / intra_refresh=0 / rc_lookahead=60 / rc=2pass / mbtree=1 / bitrate=13004 / ratetol=1.0 / qcomp=0.60 / qpmin=0 / qpmax=69 / qpstep=4 / cplxblur=20.0 / qblur=0.5 / ip_ratio=1.40 / aq=1:0.80
  25. Default                                  : Yes
  26. Forced                                   : No

  27. Audio
  28. ID                                       : 2
  29. Format                                   : DTS
  30. Format/Info                              : Digital Theater Systems
  31. Mode                                     : 16
  32. Format settings, Endianness              : Big
  33. Codec ID                                 : A_DTS
  34. Duration                                 : 1 h 37 min
  35. Bit rate mode                            : Constant
  36. Bit rate                                 : 1 509 kb/s
  37. Channel(s)                               : 6 channels
  38. Channel positions                        : Front: L C R, Side: L R, LFE
  39. Sampling rate                            : 48.0 kHz
  40. Frame rate                               : 93.750 FPS (512 SPF)
  41. Bit depth                                : 24 bits
  42. Compression mode                         : Lossy
  43. Stream size                              : 1.02GB (10%)
  44. Language                                 : English
  45. Default                                  : Yes
  46. Forced                                   : No

  47. Text #1
  48. ID                                       : 3
  49. Format                                   : UTF-8
  50. Codec ID                                 : S_TEXT/UTF8
  51. Codec ID/Info                            : UTF-8 Plain Text
  52. Duration                                 : 1 h 33 min
  53. Bit rate                                 : 62 b/s
  54. Count of elements                        : 1142
  55. Stream size                              : 42.6 KiB (0%)
  56. Language                                 : English
  57. Default                                  : No
  58. Forced                                   : No

  59. Text #2
  60. ID                                       : 4
  61. Format                                   : UTF-8
  62. Codec ID                                 : S_TEXT/UTF8
  63. Codec ID/Info                            : UTF-8 Plain Text
  64. Duration                                 : 1 h 33 min
  65. Bit rate                                 : 69 b/s
  66. Count of elements                        : 1269
  67. Stream size                              : 47.5 KiB (0%)
  68. Title                                    : SDH
  69. Language                                 : English
  70. Default                                  : No
  71. Forced                                   : No

  72. Menu
  73. 00:00:00.000                             : en:00:00:00.000
  74. 00:04:00.240                             : en:00:04:00.240
  75. 00:11:35.987                             : en:00:11:35.987
  76. 00:18:51.672                             : en:00:18:51.672
  77. 00:24:10.532                             : en:00:24:10.532
  78. 00:27:10.045                             : en:00:27:10.045
  79. 00:35:16.990                             : en:00:35:16.990
  80. 00:42:12.029                             : en:00:42:12.029
  81. 00:46:07.431                             : en:00:46:07.431
  82. 00:55:13.769                             : en:00:55:13.769
  83. 01:01:06.413                             : en:01:01:06.413
  84. 01:06:25.690                             : en:01:06:25.690
  85. 01:13:46.047                             : en:01:13:46.047
  86. 01:19:50.619                             : en:01:19:50.619
  87. 01:24:30.482                             : en:01:24:30.482
  88. 01:27:36.334                             : en:01:27:36.334




复制代码
复制代码
113545uvlegtdt7za77elu.jpg






回复

使用道具 举报

蓝光币
1240
发表于 2018-4-16 22:45:56 | 显示全部楼层

楼主发片辛苦了,万分感谢,好人一生平安!
回复 支持 反对

使用道具 举报

蓝光币
130
发表于 2018-4-17 18:33:05 | 显示全部楼层
这一家真不容易,够乱的
回复 支持 反对

使用道具 举报

懒得打字嘛,点击右侧快捷回复 【右侧内容,后台自定义】
您需要登录后才可以回帖 登录 | 立即加入

本版积分规则

Archiver|小黑屋| 蓝光电影网 |网站地图

Copyright © 2021 Comsenz Inc. Powered by 蓝光电影网

蓝光电影网

本站内容由用户自主分享和转载自互联网,转载目的在于传递更多信息,并不代表本网赞同其观点和对其真实性负责。

如有侵权、违反国家法律政策行为,请联系我们,我们会第一时间及时清除和处理!

举报反馈邮箱:[email protected]

快速回复 返回顶部 返回列表