找回密码

蓝光电影网

查看: 1507|回复: 1

[惊悚] 让我死/魍美 Net.I.Die.2017.1080p.BluRay.x264-WiKi 7.95GB

[复制链接]
蓝光币
623
发表于 2018-4-16 00:09:19 | 显示全部楼层 |阅读模式
183936pac244zce7ufc65i.jpg
◎译  名 让我死/魍美
◎片  名 Net I Die
◎年  代 2017
◎产  地 泰国
◎类  别 惊悚/可骇
◎语  言 泰语
◎上映日期 2017-08-17(泰国)
◎IMDb评分  4.0/10 from 46 users
◎IMDb链接  http://www.imdb.com/title/tt7154176/
◎豆瓣评分 /10 from 0 users
◎豆瓣链接 https://movie.douban.com/subject/27166091/
◎片  长 86分钟
◎导  演 Weeratham Preedee
◎主  演 Klai-Udom Sarantorn
      Kachai Pich
      Fahkuelon Ratsameekhae

◎简  介

  人氣網紅莫妮卡(琪洽安瑪達雅婫 飾)在當紅時,忽然自殺灭亡。1年後,莫妮卡的自殺影片在網路瘋傳,這段影片的標籤竟列出其他許多網紅的名字。其中一個名字是成功經營自創化妝品牌的瑪莉莎(莎蘭通.凱烏東 飾),她開始遭碰到許多怪異事务,而其他被標記的人則接連灭亡。瑪莉莎成日被各種幻覺嚇得精神不濟,甚至摔傷住院,男友阿杰不忍看著她日漸憔悴,決定要找出這離奇事务背後的真相,他暗自著手調查,漸漸發現事务後的真相,瑪莉莎能夠躲過死神召喚活下來嗎?最超越你瘋狂想像的駭人故事即將上演!


  1. Video
  2. ID                                       : 1
  3. Format                                   : AVC
  4. Format/Info                              : Advanced Video Codec
  5. Format profile                           : [email protected]
  6. Format settings                          : CABAC / 5 Ref Frames
  7. Format settings, CABAC                   : Yes
  8. Format settings, ReFrames                : 5 frames
  9. Codec ID                                 : V_MPEG4/ISO/AVC
  10. Duration                                 : 1 h 25 min
  11. Bit rate                                 : 12.7 Mb/s
  12. Width                                    : 1 920 pixels
  13. Height                                   : 808 pixels
  14. Display aspect ratio                     : 2.40:1
  15. Frame rate mode                          : Constant
  16. Frame rate                               : 24.000 FPS
  17. Color space                              : YUV
  18. Chroma subsampling                       : 4:2:0
  19. Bit depth                                : 8 bits
  20. Scan type                                : Progressive
  21. Bits/(Pixel*Frame)                       : 0.342
  22. Stream size                              : 7.57GB (95%)
  23. Writing library                          : x264 core 129 r2245 bc13772
  24. Encoding settings                        : cabac=1 / ref=5 / deblock=1:-3:-3 / analyse=0x3:0x133 / me=umh / subme=11 / psy=1 / psy_rd=1.05:0.05 / mixed_ref=1 / me_range=64 / chroma_me=1 / trellis=2 / 8x8dct=1 / cqm=0 / deadzone=21,11 / fast_pskip=0 / chroma_qp_offset=-3 / threads=12 / lookahead_threads=2 / sliced_threads=0 / nr=0 / decimate=1 / interlaced=0 / bluray_compat=0 / constrained_intra=0 / bframes=8 / b_pyramid=2 / b_adapt=2 / b_bias=0 / direct=3 / weightb=1 / open_gop=0 / weightp=2 / keyint=250 / keyint_min=24 / scenecut=40 / intra_refresh=0 / rc_lookahead=60 / rc=2pass / mbtree=1 / bitrate=12741 / ratetol=1.0 / qcomp=0.60 / qpmin=0 / qpmax=69 / qpstep=4 / cplxblur=20.0 / qblur=0.5 / vbv_maxrate=40000 / vbv_bufsize=30000 / nal_hrd=none / ip_ratio=1.40 / aq=1:0.65
  25. Language                                 : English
  26. Default                                  : Yes
  27. Forced                                   : No

  28. Audio
  29. ID                                       : 2
  30. Format                                   : AC-3
  31. Format/Info                              : Audio Coding 3
  32. Codec ID                                 : A_AC3
  33. Duration                                 : 1 h 25 min
  34. Bit rate mode                            : Constant
  35. Bit rate                                 : 640 kb/s
  36. Channel(s)                               : 6 channels
  37. Channel positions                        : Front: L C R, Side: L R, LFE
  38. Sampling rate                            : 48.0 kHz
  39. Frame rate                               : 31.250 FPS (1536 SPF)
  40. Bit depth                                : 16 bits
  41. Compression mode                         : Lossy
  42. Stream size                              : 389 MiB (5%)
  43. Language                                 : Thai
  44. Service kind                             : Complete Main
  45. Default                                  : Yes
  46. Forced                                   : No

  47. Text #1
  48. ID                                       : 3
  49. Format                                   : UTF-8
  50. Codec ID                                 : S_TEXT/UTF8
  51. Codec ID/Info                            : UTF-8 Plain Text
  52. Duration                                 : 1 h 21 min
  53. Bit rate                                 : 23 b/s
  54. Count of elements                        : 685
  55. Stream size                              : 14.1 KiB (0%)
  56. Title                                    : 繁体
  57. Language                                 : Chinese
  58. Default                                  : Yes
  59. Forced                                   : No

  60. Text #2
  61. ID                                       : 4
  62. Format                                   : UTF-8
  63. Codec ID                                 : S_TEXT/UTF8
  64. Codec ID/Info                            : UTF-8 Plain Text
  65. Duration                                 : 1 h 21 min
  66. Bit rate                                 : 23 b/s
  67. Count of elements                        : 685
  68. Stream size                              : 14.1 KiB (0%)
  69. Title                                    : 简体
  70. Language                                 : Chinese
  71. Default                                  : No
  72. Forced                                   : No



复制代码
复制代码
183937x9cbsfl9olyr0oro.jpg 183937neff0t0li1ltja1l.jpg 183938kgq1g7fwp74fw7en.jpg






回复

使用道具 举报

蓝光币
1240
发表于 2018-4-16 22:36:08 | 显示全部楼层

楼主发片辛苦了,万分感谢,好人一生平安!
回复 支持 反对

使用道具 举报

懒得打字嘛,点击右侧快捷回复 【右侧内容,后台自定义】
您需要登录后才可以回帖 登录 | 立即加入

本版积分规则

Archiver|小黑屋| 蓝光电影网 |网站地图

Copyright © 2021 Comsenz Inc. Powered by 蓝光电影网

蓝光电影网

本站内容由用户自主分享和转载自互联网,转载目的在于传递更多信息,并不代表本网赞同其观点和对其真实性负责。

如有侵权、违反国家法律政策行为,请联系我们,我们会第一时间及时清除和处理!

举报反馈邮箱:[email protected]

快速回复 返回顶部 返回列表