找回密码

蓝光电影网

查看: 1060|回复: 2

[动作] 金槍客再闖鬼門關 The.Return.of.Ringo.1965.1080p.BluRay.x264-GHOULS 6.56GB

[复制链接]
蓝光币
623
发表于 2018-4-16 00:09:44 | 显示全部楼层 |阅读模式
203042dc2s38sxc3pp9bll.jpg
◎译  名 金槍客再闖鬼門關
◎片  名 Il ritorno di Ringo
◎年  代 1965
◎产  地 意大利/西班牙
◎类  别 行动/剧情/恋爱/西部
◎语  言 意大利语
◎上映日期 1965
◎IMDb评分  6.9/10 from 960 users
◎IMDb链接  http://www.imdb.com/title/tt0060903/
◎豆瓣评分 /10 from 0 users
◎豆瓣链接 https://movie.douban.com/subject/3802152/
◎片  长 Italy: 95 分钟/Spain: 104 分钟/West Germany: 96 分钟
◎导  演 Duccio Tessari
◎主  演 朱利安诺·基玛

◎简  介

  A returning Union Officer discovers that his home has been overrun by Mexican bandits, and infiltrates the gang to restore order and determine if his wife has been faithful to him.


  1. Video
  2. ID                                       : 1
  3. Format                                   : AVC
  4. Format/Info                              : Advanced Video Codec
  5. Format profile                           : [email protected]
  6. Format settings                          : CABAC / 5 Ref Frames
  7. Format settings, CABAC                   : Yes
  8. Format settings, RefFrames               : 5 frames
  9. Codec ID                                 : V_MPEG4/ISO/AVC
  10. Duration                                 : 1 h 36 min
  11. Bit rate                                 : 8 955 kb/s
  12. Width                                    : 1 920 pixels
  13. Height                                   : 816 pixels
  14. Display aspect ratio                     : 2.35:1
  15. Frame rate mode                          : Constant
  16. Frame rate                               : 23.976 (24000/1001) FPS
  17. Color space                              : YUV
  18. Chroma subsampling                       : 4:2:0
  19. Bit depth                                : 8 bits
  20. Scan type                                : Progressive
  21. Bits/(Pixel*Frame)                       : 0.238
  22. Stream size                              : 6.04GB (92%)
  23. Writing library                          : x264 core 155 r2901 7d0ff22
  24. Encoding settings                        : cabac=1 / ref=5 / deblock=1:-3:-3 / analyse=0x3:0x133 / me=umh / subme=8 / psy=1 / psy_rd=1.00:0.00 / mixed_ref=1 / me_range=16 / chroma_me=1 / trellis=1 / 8x8dct=1 / cqm=0 / deadzone=21,11 / fast_pskip=0 / chroma_qp_offset=-2 / threads=24 / lookahead_threads=4 / sliced_threads=0 / nr=0 / decimate=1 / interlaced=0 / bluray_compat=0 / constrained_intra=0 / bframes=3 / b_pyramid=2 / b_adapt=1 / b_bias=0 / direct=3 / weightb=1 / open_gop=0 / weightp=2 / keyint=250 / keyint_min=23 / scenecut=40 / intra_refresh=0 / rc_lookahead=50 / rc=2pass / mbtree=1 / bitrate=8955 / ratetol=1.0 / qcomp=0.60 / qpmin=0 / qpmax=69 / qpstep=4 / cplxblur=20.0 / qblur=0.5 / vbv_maxrate=62500 / vbv_bufsize=78125 / nal_hrd=none / filler=0 / ip_ratio=1.40 / aq=1:1.00
  25. Default                                  : Yes
  26. Forced                                   : No

  27. Audio
  28. ID                                       : 2
  29. Format                                   : DTS
  30. Format/Info                              : Digital Theater Systems
  31. Mode                                     : 16
  32. Format settings, Endianness              : Big
  33. Codec ID                                 : A_DTS
  34. Duration                                 : 1 h 36 min
  35. Bit rate mode                            : Constant
  36. Bit rate                                 : 768 kb/s
  37. Channel(s)                               : 1 channel
  38. Channel positions                        : Front: C
  39. Sampling rate                            : 48.0 kHz
  40. Frame rate                               : 93.750 FPS (512 SPF)
  41. Bit depth                                : 24 bits
  42. Compression mode                         : Lossy
  43. Stream size                              : 530 MiB (8%)
  44. Language                                 : Italian
  45. Default                                  : Yes
  46. Forced                                   : No

  47. Text
  48. ID                                       : 3
  49. Format                                   : UTF-8
  50. Codec ID                                 : S_TEXT/UTF8
  51. Codec ID/Info                            : UTF-8 Plain Text
  52. Duration                                 : 1 h 35 min
  53. Bit rate                                 : 21 b/s
  54. Count of elements                        : 372
  55. Stream size                              : 14.9 KiB (0%)
  56. Language                                 : English
  57. Default                                  : Yes
  58. Forced                                   : No

  59. Menu
  60. 00:00:00.000                             : en:00:00:00.000
  61. 00:08:18.540                             : en:00:08:18.540
  62. 00:16:49.467                             : en:00:16:49.467
  63. 00:25:05.671                             : en:00:25:05.671
  64. 00:31:30.055                             : en:00:31:30.055
  65. 00:38:43.613                             : en:00:38:43.613
  66. 00:47:37.772                             : en:00:47:37.772
  67. 00:56:44.484                             : en:00:56:44.484
  68. 01:05:11.658                             : en:01:05:11.658
  69. 01:14:09.862                             : en:01:14:09.862
  70. 01:21:27.841                             : en:01:21:27.841
  71. 01:29:47.007                             : en:01:29:47.007




复制代码
复制代码
203044xubu6eqmexuimmjs.jpg






回复

使用道具 举报

蓝光币
1240
发表于 2018-4-16 22:34:33 | 显示全部楼层

楼主发片辛苦了,万分感谢,好人一生平安!
回复 支持 反对

使用道具 举报

蓝光币
143
发表于 2018-4-18 18:50:27 | 显示全部楼层
楼主发片辛苦了,万分感谢,好人一生平安!
回复 支持 反对

使用道具 举报

懒得打字嘛,点击右侧快捷回复 【右侧内容,后台自定义】
您需要登录后才可以回帖 登录 | 立即加入

本版积分规则

Archiver|小黑屋| 蓝光电影网 |网站地图

Copyright © 2021 Comsenz Inc. Powered by 蓝光电影网

蓝光电影网

本站内容由用户自主分享和转载自互联网,转载目的在于传递更多信息,并不代表本网赞同其观点和对其真实性负责。

如有侵权、违反国家法律政策行为,请联系我们,我们会第一时间及时清除和处理!

举报反馈邮箱:[email protected]

快速回复 返回顶部 返回列表