找回密码

蓝光电影网

查看: 881|回复: 2

[剧情] 潦倒岁月 The.Last.Movie.Star.2017.1080p.BluRay.x264.DTS-HD.MA.5.1-FGT 9.07GB

[复制链接]
蓝光币
623
发表于 2018-4-16 00:11:11 | 显示全部楼层 |阅读模式
221800qxcm45zmmkd6vxmm.jpg
◎译  名 失意光阴
◎片  名 The Last Movie Star
◎年  代 2017
◎产  地 美国
◎类  别 剧情
◎语  言 英语
◎上映日期 2017-04-22(翠贝卡电影节)
◎IMDb评分  6.8/10 from 616 users
◎IMDb链接  http://www.imdb.com/title/tt5836316/
◎豆瓣评分 /10 from 0 users
◎豆瓣链接 https://movie.douban.com/subject/26981162/
◎片  长 94分钟
◎导  演 亚当·莱福金 Adam Rifkin
◎主  演 伯特·雷诺兹 Burt Reynolds
      阿芮尔·温特 Ariel Winter
      克拉克·杜克 Clark Duke
      埃拉·科尔特兰 Ellar Coltrane
      妮基·布朗斯凯 Nikki Blonsky
      切维·切斯 Chevy Chase
      科迪·朗格 Cody Longo
      贾斯汀·斯特里特 Juston Street
      凯瑟琳·诺兰 Kathleen Nolan
      Izzy Fenech

◎简  介

  A24、DirecTV购得[失意光阴](Dog Years,暂译)北美刊行权。影片在今年翠贝卡电影节首映。该片由亚当·莱福金([捕鼠记]编剧)自编自导,主演伯特·雷诺兹、阿芮尔·温特。今年81岁的伯特·雷诺兹在片中饰男配角维克,一位昔日大红大紫的电影明星,现在“年老色衰”的维克不能不重视现实的逆境。


  1. Video
  2. ID                                       : 1
  3. Format                                   : AVC
  4. Format/Info                              : Advanced Video Codec
  5. Format profile                           : [email protected]
  6. Format settings                          : CABAC / 5 Ref Frames
  7. Format settings, CABAC                   : Yes
  8. Format settings, ReFrames                : 5 frames
  9. Codec ID                                 : V_MPEG4/ISO/AVC
  10. Duration                                 : 1 h 43 min
  11. Bit rate                                 : 9 052 kb/s
  12. Width                                    : 1 920 pixels
  13. Height                                   : 800 pixels
  14. Display aspect ratio                     : 2.40:1
  15. Frame rate mode                          : Constant
  16. Frame rate                               : 23.976 (24000/1001) FPS
  17. Color space                              : YUV
  18. Chroma subsampling                       : 4:2:0
  19. Bit depth                                : 8 bits
  20. Scan type                                : Progressive
  21. Bits/(Pixel*Frame)                       : 0.246
  22. Stream size                              : 6.55GB (72%)
  23. Title                                    : The.Last.Movie.Star.2017.1080p.BluRay.x264.DTS-HD.MA.5.1-FGT
  24. Writing library                          : x264 core 155 r2901 7d0ff22
  25. Encoding settings                        : cabac=1 / ref=5 / deblock=1:-3:-3 / analyse=0x3:0x133 / me=umh / subme=8 / psy=1 / psy_rd=1.00:0.00 / mixed_ref=1 / me_range=16 / chroma_me=1 / trellis=1 / 8x8dct=1 / cqm=0 / deadzone=21,11 / fast_pskip=0 / chroma_qp_offset=-2 / threads=25 / lookahead_threads=4 / sliced_threads=0 / nr=0 / decimate=1 / interlaced=0 / bluray_compat=0 / constrained_intra=0 / bframes=3 / b_pyramid=2 / b_adapt=1 / b_bias=0 / direct=3 / weightb=1 / open_gop=0 / weightp=2 / keyint=250 / keyint_min=23 / scenecut=40 / intra_refresh=0 / rc_lookahead=50 / rc=2pass / mbtree=1 / bitrate=9052 / ratetol=1.0 / qcomp=0.60 / qpmin=0 / qpmax=69 / qpstep=4 / cplxblur=20.0 / qblur=0.5 / vbv_maxrate=62500 / vbv_bufsize=78125 / nal_hrd=none / filler=0 / ip_ratio=1.40 / aq=1:1.00
  26. Default                                  : Yes
  27. Forced                                   : No

  28. Audio
  29. ID                                       : 2
  30. Format                                   : DTS
  31. Format/Info                              : Digital Theater Systems
  32. Format profile                           : MA / Core
  33. Codec ID                                 : A_DTS
  34. Duration                                 : 1 h 43 min
  35. Bit rate mode                            : Variable / Constant
  36. Bit rate                                 : 3 453 kb/s / 1 509 kb/s
  37. Channel(s)                               : 6 channels
  38. Channel positions                        : Front: L C R, Side: L R, LFE
  39. Sampling rate                            : 48.0 kHz
  40. Frame rate                               : 93.750 FPS (512 SPF)
  41. Bit depth                                : 24 bits
  42. Compression mode                         : Lossless / Lossy
  43. Stream size                              : 2.50GB (28%)
  44. Title                                    : The.Last.Movie.Star.2017.1080p.BluRay.x264.DTS-HD.MA.5.1-FGT
  45. Language                                 : English
  46. Default                                  : Yes
  47. Forced                                   : No

  48. Text #1
  49. ID                                       : 3
  50. Format                                   : UTF-8
  51. Codec ID                                 : S_TEXT/UTF8
  52. Codec ID/Info                            : UTF-8 Plain Text
  53. Duration                                 : 1 h 42 min
  54. Bit rate                                 : 69 b/s
  55. Count of elements                        : 1583
  56. Stream size                              : 51.6 KiB (0%)
  57. Title                                    : English-SRT
  58. Language                                 : English
  59. Default                                  : Yes
  60. Forced                                   : No

  61. Text #2
  62. ID                                       : 4
  63. Format                                   : PGS
  64. Muxing mode                              : zlib
  65. Codec ID                                 : S_HDMV/PGS
  66. Codec ID/Info                            : Picture based subtitle format used on BDs/HD-DVDs
  67. Duration                                 : 1 h 42 min
  68. Bit rate                                 : 48.1 kb/s
  69. Count of elements                        : 3177
  70. Stream size                              : 35.2 MiB (0%)
  71. Title                                    : English-PGS
  72. Language                                 : English
  73. Default                                  : No
  74. Forced                                   : No

  75. Menu
  76. 00:00:00.000                             : en:00:00:00.000
  77. 00:05:49.641                             : en:00:05:49.641
  78. 00:11:44.579                             : en:00:11:44.579
  79. 00:18:28.315                             : en:00:18:28.315
  80. 00:26:28.211                             : en:00:26:28.211
  81. 00:30:31.538                             : en:00:30:31.538
  82. 00:38:55.625                             : en:00:38:55.625
  83. 00:43:24.352                             : en:00:43:24.352
  84. 00:50:18.057                             : en:00:50:18.057
  85. 00:56:17.791                             : en:00:56:17.791
  86. 01:02:40.757                             : en:01:02:40.757
  87. 01:09:12.607                             : en:01:09:12.607
  88. 01:14:24.168                             : en:01:14:24.168
  89. 01:20:12.307                             : en:01:20:12.307
  90. 01:28:20.003                             : en:01:28:20.003
  91. 01:35:19.255                             : en:01:35:19.255



复制代码
复制代码
221801qs0wc1s1zvzoo14k.jpg 221801x3awvm9jaj2z7ka5.jpg 221802hzdyocgzcasb00sv.jpg






回复

使用道具 举报

蓝光币
1240
发表于 2018-4-16 15:50:49 | 显示全部楼层
楼主发片辛苦了,万分感谢,好人一生平安!沙发先收下坐下了
回复 支持 反对

使用道具 举报

懒得打字嘛,点击右侧快捷回复 【右侧内容,后台自定义】
您需要登录后才可以回帖 登录 | 立即加入

本版积分规则

Archiver|小黑屋| 蓝光电影网 |网站地图

Copyright © 2021 Comsenz Inc. Powered by 蓝光电影网

蓝光电影网

本站内容由用户自主分享和转载自互联网,转载目的在于传递更多信息,并不代表本网赞同其观点和对其真实性负责。

如有侵权、违反国家法律政策行为,请联系我们,我们会第一时间及时清除和处理!

举报反馈邮箱:[email protected]

快速回复 返回顶部 返回列表