找回密码

蓝光电影网

查看: 2251|回复: 7

自杀小队:严厉惩罚 Suicide.Squad.Hell.to.Pay.2018.2160p.BluRay.REMUX.HEVC.DTS-HD.5.1-FGT 33.16GB

[复制链接]
蓝光币
623
发表于 2018-4-16 20:33:55 | 显示全部楼层 |阅读模式
114342im36w95omd3dlt1b.jpg
◎译  名 自杀小队:严厉赏罚
◎片  名 Suicide Squad: Hell to Pay
◎年  代 2018
◎产  地 美国
◎类  别 行动/动画
◎语  言 英语
◎上映日期 2018-03-27(美国)
◎IMDb评分  7.3/10 from 1,661 users
◎IMDb链接  http://www.imdb.com/title/tt7167602/
◎豆瓣评分 7.4/10 from 117 users
◎豆瓣链接 https://movie.douban.com/subject/27098363/
◎片  长 86分钟
◎导  演 刘山姆 Sam Liu
◎主  演 克里斯蒂安·史莱特 Christian Slater
      C·托马斯·豪威尔 C. Thomas Howell
      塔拉·斯特朗 Tara Strong
      丹妮亚·拉米雷兹 Dania Ramirez
      凡妮莎·威廉斯 Vanessa Williams
      比利·布朗 Billy Brown
      克里斯汀·鲍尔 Kristin Bauer
      吉迪恩·埃默里 Gideon Emery
      詹姆斯·乌尔班尼亚克 James Urbaniak
      吉姆·皮里 Jim Pirri
      格雷戈·格伦伯格 Greg Grunberg
      特雷弗·德瓦 Trevor Devall
      马修·默瑟 Matthew Mercer
      Julie Nathanson
      Dave Fennoy
      Cissy Jones
      Natalie Lander
      Dave Boat

◎简  介

  DC动画电影《自杀小队:严厉赏罚》(Suicide Squad: Hell to Pay)公布预告,小丑女、死射、冰霜杀手、铜头蛇、盘旋镖队长、铜虎组成小队,阿曼达·沃勒派遣他们去找回一个奥秘物件——为此他们愿意牺牲人命,而小队很快发现他们面临着其他团伙的应战。
  克里斯汀·史莱特、C·托马斯·豪威尔、塔拉·斯特朗、连姆·麦肯泰尔、比利·布朗、克里斯汀·鲍尔、凡妮莎·威廉姆斯、丹妮亚·拉米雷兹等介入配音,Sam Liu(《蝙蝠侠:致命玩笑》《绿灯侠》动画系列)执导,今春刊行数字版、DVD和蓝光碟。


  1. Video
  2. ID                                       : 1
  3. Format                                   : HEVC
  4. Format/Info                              : High Efficiency Video Coding
  5. Format profile                           : Main [email protected]@High
  6. Codec ID                                 : V_MPEGH/ISO/HEVC
  7. Duration                                 : 1 h 26 min
  8. Bit rate                                 : 51.2 Mb/s
  9. Width                                    : 3 840 pixels
  10. Height                                   : 2 160 pixels
  11. Display aspect ratio                     : 16:9
  12. Frame rate mode                          : Constant
  13. Frame rate                               : 23.976 (24000/1001) FPS
  14. Color space                              : YUV
  15. Chroma subsampling                       : 4:2:0 (Type 2)
  16. Bit depth                                : 10 bits
  17. Bits/(Pixel*Frame)                       : 0.257
  18. Stream size                              : 30.8GB (93%)
  19. Title                                    : Suicide.Squad.Hell.to.Pay.2018.2160p.BluRay.REMUX.HEVC.DTS-HD.5.1-FGT
  20. Writing library                          : ATEME Titan File 3.8.13 (4.8.13.0)
  21. Default                                  : Yes
  22. Forced                                   : No
  23. Color range                              : Limited
  24. Color primaries                          : BT.2020
  25. Transfer characteristics                 : PQ
  26. Matrix coefficients                      : BT.2020 non-constant
  27. Mastering display color primaries        : Display P3
  28. Mastering display luminance              : min: 0.0050 cd/m2, max: 4000 cd/m2
  29. Maximum Content Light Level              : 1051 cd/m2
  30. Maximum Frame-Average Light Level        : 463 cd/m2

  31. Audio #1
  32. ID                                       : 2
  33. Format                                   : DTS
  34. Format/Info                              : Digital Theater Systems
  35. Format profile                           : MA / Core
  36. Codec ID                                 : A_DTS
  37. Duration                                 : 1 h 26 min
  38. Bit rate mode                            : Variable / Constant
  39. Bit rate                                 : 2 467 kb/s / 1 509 kb/s
  40. Channel(s)                               : 6 channels
  41. Channel positions                        : Front: L C R, Side: L R, LFE
  42. Sampling rate                            : 48.0 kHz
  43. Frame rate                               : 93.750 FPS (512 SPF)
  44. Bit depth                                : 24 bits
  45. Compression mode                         : Lossless / Lossy
  46. Stream size                              : 1.48GB (4%)
  47. Title                                    : Suicide.Squad.Hell.to.Pay.2018.2160p.BluRay.REMUX.HEVC.DTS-HD.5.1-FGT
  48. Language                                 : English
  49. Default                                  : Yes
  50. Forced                                   : No

  51. Audio #2
  52. ID                                       : 3
  53. Format                                   : AC-3
  54. Format/Info                              : Audio Coding 3
  55. Codec ID                                 : A_AC3
  56. Duration                                 : 1 h 26 min
  57. Bit rate mode                            : Constant
  58. Bit rate                                 : 640 kb/s
  59. Channel(s)                               : 6 channels
  60. Channel positions                        : Front: L C R, Side: L R, LFE
  61. Sampling rate                            : 48.0 kHz
  62. Frame rate                               : 31.250 FPS (1536 SPF)
  63. Bit depth                                : 16 bits
  64. Compression mode                         : Lossy
  65. Stream size                              : 394 MiB (1%)
  66. Title                                    : Suicide.Squad.Hell.to.Pay.2018.2160p.BluRay.REMUX.HEVC.DTS-HD.5.1-FGT
  67. Language                                 : French
  68. Service kind                             : Complete Main
  69. Default                                  : No
  70. Forced                                   : No

  71. Audio #3
  72. ID                                       : 4
  73. Format                                   : AC-3
  74. Format/Info                              : Audio Coding 3
  75. Codec ID                                 : A_AC3
  76. Duration                                 : 1 h 26 min
  77. Bit rate mode                            : Constant
  78. Bit rate                                 : 192 kb/s
  79. Channel(s)                               : 2 channels
  80. Channel positions                        : Front: L R
  81. Sampling rate                            : 48.0 kHz
  82. Frame rate                               : 31.250 FPS (1536 SPF)
  83. Bit depth                                : 16 bits
  84. Compression mode                         : Lossy
  85. Stream size                              : 118 MiB (0%)
  86. Title                                    : Suicide.Squad.Hell.to.Pay.2018.2160p.BluRay.REMUX.HEVC.DTS-HD.5.1-FGT
  87. Language                                 : Spanish
  88. Service kind                             : Complete Main
  89. Default                                  : No
  90. Forced                                   : No

  91. Audio #4
  92. ID                                       : 5
  93. Format                                   : AC-3
  94. Format/Info                              : Audio Coding 3
  95. Codec ID                                 : A_AC3
  96. Duration                                 : 1 h 26 min
  97. Bit rate mode                            : Constant
  98. Bit rate                                 : 640 kb/s
  99. Channel(s)                               : 6 channels
  100. Channel positions                        : Front: L C R, Side: L R, LFE
  101. Sampling rate                            : 48.0 kHz
  102. Frame rate                               : 31.250 FPS (1536 SPF)
  103. Bit depth                                : 16 bits
  104. Compression mode                         : Lossy
  105. Stream size                              : 394 MiB (1%)
  106. Title                                    : Suicide.Squad.Hell.to.Pay.2018.2160p.BluRay.REMUX.HEVC.DTS-HD.5.1-FGT
  107. Language                                 : Spanish
  108. Service kind                             : Complete Main
  109. Default                                  : No
  110. Forced                                   : No

  111. Text #1
  112. ID                                       : 6
  113. Format                                   : PGS
  114. Muxing mode                              : zlib
  115. Codec ID                                 : S_HDMV/PGS
  116. Codec ID/Info                            : Picture based subtitle format used on BDs/HD-DVDs
  117. Duration                                 : 1 h 25 min
  118. Bit rate                                 : 29.8 kb/s
  119. Count of elements                        : 2110
  120. Stream size                              : 18.3 MiB (0%)
  121. Title                                    : English-PGS
  122. Language                                 : English
  123. Default                                  : Yes
  124. Forced                                   : No

  125. Text #2
  126. ID                                       : 7
  127. Format                                   : PGS
  128. Muxing mode                              : zlib
  129. Codec ID                                 : S_HDMV/PGS
  130. Codec ID/Info                            : Picture based subtitle format used on BDs/HD-DVDs
  131. Duration                                 : 1 h 25 min
  132. Bit rate                                 : 26.7 kb/s
  133. Count of elements                        : 1700
  134. Stream size                              : 16.4 MiB (0%)
  135. Title                                    : French-PGS
  136. Language                                 : French
  137. Default                                  : No
  138. Forced                                   : No

  139. Text #3
  140. ID                                       : 8
  141. Format                                   : PGS
  142. Muxing mode                              : zlib
  143. Codec ID                                 : S_HDMV/PGS
  144. Codec ID/Info                            : Picture based subtitle format used on BDs/HD-DVDs
  145. Duration                                 : 1 h 25 min
  146. Bit rate                                 : 26.0 kb/s
  147. Count of elements                        : 1720
  148. Stream size                              : 15.9 MiB (0%)
  149. Title                                    : Spanish-PGS
  150. Language                                 : Spanish
  151. Default                                  : No
  152. Forced                                   : No

  153. Text #4
  154. ID                                       : 9
  155. Format                                   : PGS
  156. Muxing mode                              : zlib
  157. Codec ID                                 : S_HDMV/PGS
  158. Codec ID/Info                            : Picture based subtitle format used on BDs/HD-DVDs
  159. Duration                                 : 1 h 25 min
  160. Bit rate                                 : 24.6 kb/s
  161. Count of elements                        : 1720
  162. Stream size                              : 15.1 MiB (0%)
  163. Title                                    : Spanish-FORCED-PGS
  164. Language                                 : Spanish
  165. Default                                  : No
  166. Forced                                   : No

  167. Menu
  168. 00:00:00.000                             : en:Chapter 1
  169. 00:10:21.621                             : en:Chapter 2
  170. 00:19:57.321                             : en:Chapter 3
  171. 00:35:58.823                             : en:Chapter 4
  172. 00:48:13.473                             : en:Chapter 5
  173. 00:55:38.293                             : en:Chapter 6
  174. 01:01:51.874                             : en:Chapter 7
  175. 01:15:39.117                             : en:Chapter 8
  176. 01:22:49.047                             : en:Chapter 9



复制代码
复制代码
114342r12rkgkk4buhbtgk.jpg 114343k71mwm4s1ffts9bh.jpg 114343biul84mtm78ctijd.jpg







回复

使用道具 举报

蓝光币
189
发表于 2018-4-17 10:35:03 | 显示全部楼层
激动人心,无法言表!
回复 支持 反对

使用道具 举报

蓝光币
189
发表于 2018-4-17 13:53:26 | 显示全部楼层
强烈支持楼主ing……
回复 支持 反对

使用道具 举报

蓝光币
821
发表于 2018-4-18 18:12:18 | 显示全部楼层
强烈支持楼主ing……
回复 支持 反对

使用道具 举报

蓝光币
1365
发表于 2018-4-19 22:34:09 | 显示全部楼层
Thank you very much
回复 支持 反对

使用道具 举报

蓝光币
189
发表于 2018-4-21 14:58:39 | 显示全部楼层
激动人心,无法言表!
回复 支持 反对

使用道具 举报

蓝光币
189
发表于 2018-4-21 15:10:01 | 显示全部楼层
楼主加油,我们都看好你哦。
回复 支持 反对

使用道具 举报

蓝光币
189
发表于 2018-5-29 09:47:10 | 显示全部楼层
强烈支持楼主ing……
回复 支持 反对

使用道具 举报

懒得打字嘛,点击右侧快捷回复 【右侧内容,后台自定义】
您需要登录后才可以回帖 登录 | 立即加入

本版积分规则

Archiver|小黑屋| 蓝光电影网 |网站地图

Copyright © 2021 Comsenz Inc. Powered by 蓝光电影网

蓝光电影网

本站内容由用户自主分享和转载自互联网,转载目的在于传递更多信息,并不代表本网赞同其观点和对其真实性负责。

如有侵权、违反国家法律政策行为,请联系我们,我们会第一时间及时清除和处理!

举报反馈邮箱:[email protected]

快速回复 返回顶部 返回列表