找回密码

蓝光电影网

查看: 1636|回复: 7

华盛顿邮报/邮报:密战 The.Post.2017.2160p.BluRay.REMUX.HEVC.DTS-HD.MA.7.1-FGT 54.68GB

[复制链接]
蓝光币
623
发表于 2018-4-16 20:34:18 | 显示全部楼层 |阅读模式
114417dwhztq2n5gwqim3g.jpg
◎译  名 华盛顿邮报/邮报:密战/战云密报/邮报
◎片  名 The Post
◎年  代 2017
◎产  地 美国/英国
◎类  别 剧情/列传/历史/惊悚
◎语  言 英语
◎上映日期 2017-12-22(美国点映)/2018-01-12(美国)
◎IMDb评分  7.2/10 from 60,867 users
◎IMDb链接  http://www.imdb.com/title/tt6294822/
◎豆瓣评分 8.2/10 from 27,992 users
◎豆瓣链接 https://movie.douban.com/subject/26990609/
◎片  长 116分钟
◎导  演 史蒂文·斯皮尔伯格 Steven Spielberg
◎主  演 梅丽尔·斯特里普 Meryl Streep
      汤姆·汉克斯 Tom Hanks
      莎拉·保罗森 Sarah Paulson
      鲍勃·奥及第克 Bob Odenkirk
      崔西·莱茨 Tracy Letts
      布莱德利·惠特福德 Bradley Whitford
      布鲁斯·格林伍德 Bruce Greenwood
      马修·瑞斯 Matthew Rhys
      爱丽森·布里 Alison Brie
      凯莉·库恩 Carrie Coon
      杰西·普莱蒙 Jesse Plemons
      大卫·克罗斯 David Cross
      扎克·伍兹 Zach Woods
      帕特·希利 Pat Healy
      约翰·鲁 John Rue
      里克·霍姆斯 Rick Holmes
      菲利普·卡斯诺夫 Philip Casnoff
      杰茜·缪勒 Jessie Mueller
      斯塔克·桑德斯 Stark Sands
      迈克尔·西里尔·克赖顿 Michael Cyril Creighton
      威尔·丹顿 Will Denton
      迪尔德丽·罗夫乔 Deirdre Lovejoy
      迈克尔·斯图巴 Michael Stuhlbarg

◎简  介

  本片聚焦1971年五角大楼保密事务。汤姆·汉克斯饰演《华盛顿邮报》总编辑本·布拉德利,梅姨饰演刊行人凯瑟琳·格雷厄姆。凯瑟琳·格雷厄姆与本·巴格迪坎要赶在《纽约时报》之前揭穿一件历经四届美国总统任期、长达三十余年的庞大袒护事务。这两小我必须消弭他们之间的差别,各自拿他们的奇迹、甚至人身自在冒险,让久长以来埋藏在黑暗深处的真相重见光亮。

◎获奖情况

  第90届奥斯卡金像奖  (2018)
  最好影片(提名) 史蒂文·斯皮尔伯格 / 克里斯蒂·麦克斯科·克里格 / 艾米·帕斯卡尔
  最好女配角(提名) 梅丽尔·斯特里普

  第75届金球奖  (2018)
  电影类 最好剧情片(提名)
  电影类 最好导演(提名) 史蒂文·斯皮尔伯格
  电影类 剧情片最好男配角(提名) 汤姆·汉克斯
  电影类 剧情片最好女配角(提名) 梅丽尔·斯特里普
  电影类 最好编剧(提名) 乔希·辛格 / 丽兹·汉娜
  电影类 最好原创配乐(提名) 约翰·威廉姆斯

  第29届美国制片野生会奖  (2018)
  最好电影制片人奖(提名)

  第68届美国剪辑工会奖  (2018)
  剧情片最好剪辑(提名) 迈克尔·卡恩 / 莎拉·布罗沙

  第22届美国艺术指导工会奖  (2018)
  电影奖 最好历史电影艺术指导(提名)

  第89届美国国家批评协会奖  (2017)
  最好影片 史蒂文·斯皮尔伯格
  最好男配角 汤姆·汉克斯
  最好女配角 梅丽尔·斯特里普

  第23届美国批评家挑选电影奖  (2018)
  最好影片(提名)
  最好导演(提名) 史蒂文·斯皮尔伯格
  最好男配角(提名) 汤姆·汉克斯
  最好女配角(提名) 梅丽尔·斯特里普
  最好群戏(提名)
  最好原创剧本(提名) 丽兹·汉娜
  最好剪辑(提名)
  最好配乐(提名)

  第18届美国电影学会奖  (2017)
  年度佳片

  第52届美国国家影评人协会奖  (2018)
  最好男配角(提名) 迈克尔·斯图巴

  第16届华盛顿影评人协会奖  (2017)
  华盛顿特区最好写照

  第4届豆瓣电影年度榜单  (2017)
  2017-2018北美颁奖季热门佳片(提名)


  1. Video
  2. ID                                       : 1
  3. Format                                   : HEVC
  4. Format/Info                              : High Efficiency Video Coding
  5. Format profile                           : Main [email protected]@High
  6. Codec ID                                 : V_MPEGH/ISO/HEVC
  7. Duration                                 : 1 h 55 min
  8. Bit rate                                 : 61.6 Mb/s
  9. Width                                    : 3 840 pixels
  10. Height                                   : 2 160 pixels
  11. Display aspect ratio                     : 16:9
  12. Frame rate mode                          : Constant
  13. Frame rate                               : 23.976 (24000/1001) FPS
  14. Color space                              : YUV
  15. Chroma subsampling                       : 4:2:0 (Type 2)
  16. Bit depth                                : 10 bits
  17. Bits/(Pixel*Frame)                       : 0.310
  18. Stream size                              : 49.9GB (91%)
  19. Title                                    : The.Post.2017.2160p.BluRay.REMUX.HEVC.DTS-HD.MA.7.1-FGT
  20. Writing library                          : ATEME Titan File 3.8.13 (4.8.13.0)
  21. Default                                  : Yes
  22. Forced                                   : No
  23. Color range                              : Limited
  24. Color primaries                          : BT.2020
  25. Transfer characteristics                 : PQ
  26. Matrix coefficients                      : BT.2020 non-constant
  27. Mastering display color primaries        : Display P3
  28. Mastering display luminance              : min: 0.0050 cd/m2, max: 1000 cd/m2

  29. Audio #1
  30. ID                                       : 2
  31. Format                                   : DTS
  32. Format/Info                              : Digital Theater Systems
  33. Format profile                           : MA / ES Matrix / Core
  34. Codec ID                                 : A_DTS
  35. Duration                                 : 1 h 55 min
  36. Bit rate mode                            : Variable / Constant / Constant
  37. Bit rate                                 : 4 551 kb/s / 1 509 kb/s / 1 509 kb/s
  38. Channel(s)                               : 8 channels / 7 channels / 6 channels
  39. Channel positions                        : Front: L C R, Side: L R, Back: L R, LFE / Front: L C R, Side: L R, Back: C, LFE / Front: L C R, Side: L R, LFE
  40. Sampling rate                            : 48.0 kHz
  41. Frame rate                               : 93.750 FPS (512 SPF)
  42. Bit depth                                : 24 bits
  43. Compression mode                         : Lossless / Lossy / Lossy
  44. Stream size                              : 3.69GB (7%)
  45. Title                                    : The.Post.2017.2160p.BluRay.REMUX.HEVC.DTS-HD.MA.7.1-FGT
  46. Language                                 : English
  47. Default                                  : Yes
  48. Forced                                   : No

  49. Audio #2
  50. ID                                       : 3
  51. Format                                   : AC-3
  52. Format/Info                              : Audio Coding 3
  53. Codec ID                                 : A_AC3
  54. Duration                                 : 1 h 55 min
  55. Bit rate mode                            : Constant
  56. Bit rate                                 : 448 kb/s
  57. Channel(s)                               : 6 channels
  58. Channel positions                        : Front: L C R, Side: L R, LFE
  59. Sampling rate                            : 48.0 kHz
  60. Frame rate                               : 31.250 FPS (1536 SPF)
  61. Bit depth                                : 16 bits
  62. Compression mode                         : Lossy
  63. Stream size                              : 372 MiB (1%)
  64. Title                                    : The.Post.2017.2160p.BluRay.REMUX.HEVC.DTS-HD.MA.7.1-FGT
  65. Language                                 : English
  66. Service kind                             : Complete Main
  67. Default                                  : No
  68. Forced                                   : No

  69. Audio #3
  70. ID                                       : 4
  71. Format                                   : AC-3
  72. Format/Info                              : Audio Coding 3
  73. Codec ID                                 : A_AC3
  74. Duration                                 : 1 h 55 min
  75. Bit rate mode                            : Constant
  76. Bit rate                                 : 448 kb/s
  77. Channel(s)                               : 6 channels
  78. Channel positions                        : Front: L C R, Side: L R, LFE
  79. Sampling rate                            : 48.0 kHz
  80. Frame rate                               : 31.250 FPS (1536 SPF)
  81. Bit depth                                : 16 bits
  82. Compression mode                         : Lossy
  83. Stream size                              : 372 MiB (1%)
  84. Title                                    : The.Post.2017.2160p.BluRay.REMUX.HEVC.DTS-HD.MA.7.1-FGT
  85. Language                                 : Spanish
  86. Service kind                             : Complete Main
  87. Default                                  : No
  88. Forced                                   : No

  89. Audio #4
  90. ID                                       : 5
  91. Format                                   : AC-3
  92. Format/Info                              : Audio Coding 3
  93. Codec ID                                 : A_AC3
  94. Duration                                 : 1 h 55 min
  95. Bit rate mode                            : Constant
  96. Bit rate                                 : 448 kb/s
  97. Channel(s)                               : 6 channels
  98. Channel positions                        : Front: L C R, Side: L R, LFE
  99. Sampling rate                            : 48.0 kHz
  100. Frame rate                               : 31.250 FPS (1536 SPF)
  101. Bit depth                                : 16 bits
  102. Compression mode                         : Lossy
  103. Stream size                              : 372 MiB (1%)
  104. Title                                    : The.Post.2017.2160p.BluRay.REMUX.HEVC.DTS-HD.MA.7.1-FGT
  105. Language                                 : French
  106. Service kind                             : Complete Main
  107. Default                                  : No
  108. Forced                                   : No

  109. Text #1
  110. ID                                       : 6
  111. Format                                   : PGS
  112. Muxing mode                              : zlib
  113. Codec ID                                 : S_HDMV/PGS
  114. Codec ID/Info                            : Picture based subtitle format used on BDs/HD-DVDs
  115. Duration                                 : 1 h 48 min
  116. Bit rate                                 : 59.1 kb/s
  117. Count of elements                        : 4568
  118. Stream size                              : 45.9 MiB (0%)
  119. Title                                    : English-PGS
  120. Language                                 : English
  121. Default                                  : Yes
  122. Forced                                   : No

  123. Text #2
  124. ID                                       : 7
  125. Format                                   : PGS
  126. Muxing mode                              : zlib
  127. Codec ID                                 : S_HDMV/PGS
  128. Codec ID/Info                            : Picture based subtitle format used on BDs/HD-DVDs
  129. Duration                                 : 1 h 54 min
  130. Bit rate                                 : 40.8 kb/s
  131. Count of elements                        : 3618
  132. Stream size                              : 33.6 MiB (0%)
  133. Title                                    : French-PGS
  134. Language                                 : French
  135. Default                                  : No
  136. Forced                                   : No

  137. Text #3
  138. ID                                       : 8
  139. Format                                   : PGS
  140. Muxing mode                              : zlib
  141. Codec ID                                 : S_HDMV/PGS
  142. Codec ID/Info                            : Picture based subtitle format used on BDs/HD-DVDs
  143. Duration                                 : 1 h 54 min
  144. Bit rate                                 : 46.5 kb/s
  145. Count of elements                        : 3606
  146. Stream size                              : 38.3 MiB (0%)
  147. Title                                    : Spanish-PGS
  148. Language                                 : Spanish
  149. Default                                  : No
  150. Forced                                   : No

  151. Menu
  152. 00:00:00.000                             : en:Chapter 1
  153. 00:05:01.926                             : en:Chapter 2
  154. 00:10:08.733                             : en:Chapter 3
  155. 00:12:32.793                             : en:Chapter 4
  156. 00:16:22.398                             : en:Chapter 5
  157. 00:19:19.616                             : en:Chapter 6
  158. 00:24:53.325                             : en:Chapter 7
  159. 00:30:23.988                             : en:Chapter 8
  160. 00:34:51.672                             : en:Chapter 9
  161. 00:39:08.679                             : en:Chapter 10
  162. 00:43:25.811                             : en:Chapter 11
  163. 00:48:20.564                             : en:Chapter 12
  164. 00:54:38.692                             : en:Chapter 13
  165. 00:59:39.784                             : en:Chapter 14
  166. 01:03:49.116                             : en:Chapter 15
  167. 01:09:59.570                             : en:Chapter 16
  168. 01:14:04.857                             : en:Chapter 17
  169. 01:20:20.273                             : en:Chapter 18
  170. 01:24:30.732                             : en:Chapter 19
  171. 01:30:22.667                             : en:Chapter 20
  172. 01:35:23.759                             : en:Chapter 21
  173. 01:38:46.545                             : en:Chapter 22
  174. 01:43:07.723                             : en:Chapter 23
  175. 01:49:27.852                             : en:Chapter 24



复制代码
复制代码
114417m33w7ukqeq7e9eet.jpg 114417tr8hocfti8ui5ft6.jpg 114418nkr1m1f1wd6e04w6.jpg






回复

使用道具 举报

蓝光币
1328
发表于 2018-4-19 10:45:42 | 显示全部楼层
真是难得给力的帖子啊。可怜我的小硬盘要撑爆了!
回复 支持 反对

使用道具 举报

蓝光币
3073
发表于 2018-4-19 20:29:18 | 显示全部楼层
真是被感动的痛哭流涕……
回复 支持 反对

使用道具 举报

懒得打字嘛,点击右侧快捷回复 【右侧内容,后台自定义】
您需要登录后才可以回帖 登录 | 立即加入

本版积分规则

Archiver|小黑屋| 蓝光电影网 |网站地图

Copyright © 2021 Comsenz Inc. Powered by 蓝光电影网

蓝光电影网

本站内容由用户自主分享和转载自互联网,转载目的在于传递更多信息,并不代表本网赞同其观点和对其真实性负责。

如有侵权、违反国家法律政策行为,请联系我们,我们会第一时间及时清除和处理!

举报反馈邮箱:[email protected]

快速回复 返回顶部 返回列表