找回密码

蓝光电影网

查看: 4608|回复: 10

自杀小队:严厉惩罚 Suicide.Squad.Hell.to.Pay.2018.2160p.BluRay.x264.8bit.SDR.DTS-HD.MA.5.1-SWTYBLZ 13.67GB

[复制链接]
蓝光币
623
发表于 2018-4-16 20:35:22 | 显示全部楼层 |阅读模式
190558rf2mhfp3pmk8ff3w.jpg
◎译  名 自杀小队:严厉赏罚
◎片  名 Suicide Squad: Hell to Pay
◎年  代 2018
◎产  地 美国
◎类  别 行动/动画
◎语  言 英语
◎上映日期 2018-03-27(美国)
◎IMDb评分  7.3/10 from 1,703 users
◎IMDb链接  http://www.imdb.com/title/tt7167602/
◎豆瓣评分 7.3/10 from 127 users
◎豆瓣链接 https://movie.douban.com/subject/27098363/
◎片  长 86分钟
◎导  演 刘山姆 Sam Liu
◎主  演 克里斯蒂安·史莱特 Christian Slater
      C·托马斯·豪威尔 C. Thomas Howell
      塔拉·斯特朗 Tara Strong
      丹妮亚·拉米雷兹 Dania Ramirez
      凡妮莎·威廉斯 Vanessa Williams
      比利·布朗 Billy Brown
      克里斯汀·鲍尔 Kristin Bauer
      吉迪恩·埃默里 Gideon Emery
      詹姆斯·乌尔班尼亚克 James Urbaniak
      吉姆·皮里 Jim Pirri
      格雷戈·格伦伯格 Greg Grunberg
      特雷弗·德瓦 Trevor Devall
      马修·默瑟 Matthew Mercer
      Julie Nathanson
      Dave Fennoy
      Cissy Jones
      Natalie Lander
      Dave Boat

◎简  介

  DC动画电影《自杀小队:严厉赏罚》(Suicide Squad: Hell to Pay)公布预告,小丑女、死射、冰霜杀手、铜头蛇、盘旋镖队长、铜虎组成小队,阿曼达·沃勒派遣他们去找回一个奥秘物件——为此他们愿意牺牲人命,而小队很快发现他们面临着其他团伙的应战。
  克里斯汀·史莱特、C·托马斯·豪威尔、塔拉·斯特朗、连姆·麦肯泰尔、比利·布朗、克里斯汀·鲍尔、凡妮莎·威廉姆斯、丹妮亚·拉米雷兹等介入配音,Sam Liu(《蝙蝠侠:致命玩笑》《绿灯侠》动画系列)执导,今春刊行数字版、DVD和蓝光碟。



  1. Video
  2. ID                                       : 1
  3. Format                                   : AVC
  4. Format/Info                              : Advanced Video Codec
  5. Format profile                           : [email protected]
  6. Format settings                          : CABAC / 5 Ref Frames
  7. Format settings, CABAC                   : Yes
  8. Format settings, RefFrames               : 5 frames
  9. Codec ID                                 : V_MPEG4/ISO/AVC
  10. Duration                                 : 1 h 26 min
  11. Bit rate                                 : 19.5 Mb/s
  12. Width                                    : 3 840 pixels
  13. Height                                   : 2 160 pixels
  14. Display aspect ratio                     : 16:9
  15. Frame rate mode                          : Constant
  16. Frame rate                               : 23.976 (24000/1001) FPS
  17. Color space                              : YUV
  18. Chroma subsampling                       : 4:2:0
  19. Bit depth                                : 8 bits
  20. Scan type                                : Progressive
  21. Bits/(Pixel*Frame)                       : 0.098
  22. Stream size                              : 11.7GB (86%)
  23. Title                                    : Suicide.Squad.Hell.to.Pay.2018.2160p.BluRay.x264.8bit.SDR.DTS-HD.MA.5.1-SWTYBLZ
  24. Writing library                          : x264 core 148 r2748 97eaef2
  25. Encoding settings                        : cabac=1 / ref=5 / deblock=1:1:1 / analyse=0x3:0x113 / me=umh / subme=10 / psy=1 / psy_rd=0.40:0.00 / mixed_ref=1 / me_range=48 / chroma_me=1 / trellis=2 / 8x8dct=1 / cqm=0 / deadzone=21,11 / fast_pskip=1 / chroma_qp_offset=-2 / threads=36 / lookahead_threads=4 / sliced_threads=0 / nr=0 / decimate=0 / interlaced=0 / bluray_compat=0 / constrained_intra=0 / bframes=5 / b_pyramid=2 / b_adapt=2 / b_bias=0 / direct=3 / weightb=1 / open_gop=0 / weightp=2 / keyint=250 / keyint_min=23 / scenecut=40 / intra_refresh=0 / rc_lookahead=50 / rc=crf / mbtree=1 / crf=12.0 / qcomp=0.60 / qpmin=0 / qpmax=69 / qpstep=4 / ip_ratio=1.40 / aq=1:0.60
  26. Default                                  : Yes
  27. Forced                                   : No

  28. Audio #1
  29. ID                                       : 2
  30. Format                                   : DTS
  31. Format/Info                              : Digital Theater Systems
  32. Format profile                           : MA / Core
  33. Codec ID                                 : A_DTS
  34. Duration                                 : 1 h 26 min
  35. Bit rate mode                            : Variable / Constant
  36. Bit rate                                 : 2 467 kb/s / 1 509 kb/s
  37. Channel(s)                               : 6 channels
  38. Channel positions                        : Front: L C R, Side: L R, LFE
  39. Sampling rate                            : 48.0 kHz
  40. Frame rate                               : 93.750 FPS (512 SPF)
  41. Bit depth                                : 24 bits
  42. Compression mode                         : Lossless / Lossy
  43. Stream size                              : 1.48GB (11%)
  44. Title                                    : Suicide.Squad.Hell.to.Pay.2018.2160p.BluRay.x264.8bit.SDR.DTS-HD.MA.5.1-SWTYBLZ
  45. Language                                 : English
  46. Default                                  : Yes
  47. Forced                                   : No

  48. Audio #2
  49. ID                                       : 3
  50. Format                                   : AC-3
  51. Format/Info                              : Audio Coding 3
  52. Codec ID                                 : A_AC3
  53. Duration                                 : 1 h 26 min
  54. Bit rate mode                            : Constant
  55. Bit rate                                 : 640 kb/s
  56. Channel(s)                               : 6 channels
  57. Channel positions                        : Front: L C R, Side: L R, LFE
  58. Sampling rate                            : 48.0 kHz
  59. Frame rate                               : 31.250 FPS (1536 SPF)
  60. Bit depth                                : 16 bits
  61. Compression mode                         : Lossy
  62. Stream size                              : 394 MiB (3%)
  63. Title                                    : Suicide.Squad.Hell.to.Pay.2018.2160p.BluRay.x264.8bit.SDR.DTS-HD.MA.5.1-SWTYBLZ
  64. Language                                 : English
  65. Service kind                             : Complete Main
  66. Default                                  : No
  67. Forced                                   : No

  68. Text #1
  69. ID                                       : 4
  70. Format                                   : UTF-8
  71. Codec ID                                 : S_TEXT/UTF8
  72. Codec ID/Info                            : UTF-8 Plain Text
  73. Duration                                 : 1 h 21 min
  74. Bit rate                                 : 46 b/s
  75. Count of elements                        : 838
  76. Stream size                              : 27.5 KiB (0%)
  77. Title                                    : English-SRT
  78. Language                                 : English
  79. Default                                  : Yes
  80. Forced                                   : No

  81. Text #2
  82. ID                                       : 5
  83. Format                                   : PGS
  84. Muxing mode                              : zlib
  85. Codec ID                                 : S_HDMV/PGS
  86. Codec ID/Info                            : Picture based subtitle format used on BDs/HD-DVDs
  87. Duration                                 : 1 h 25 min
  88. Bit rate                                 : 29.8 kb/s
  89. Count of elements                        : 2110
  90. Stream size                              : 18.3 MiB (0%)
  91. Title                                    : English-PGS
  92. Language                                 : English
  93. Default                                  : No
  94. Forced                                   : No

  95. Text #3
  96. ID                                       : 6
  97. Format                                   : PGS
  98. Muxing mode                              : zlib
  99. Codec ID                                 : S_HDMV/PGS
  100. Codec ID/Info                            : Picture based subtitle format used on BDs/HD-DVDs
  101. Duration                                 : 1 h 25 min
  102. Bit rate                                 : 26.7 kb/s
  103. Count of elements                        : 1700
  104. Stream size                              : 16.4 MiB (0%)
  105. Title                                    : French-PGS
  106. Language                                 : French
  107. Default                                  : No
  108. Forced                                   : No

  109. Text #4
  110. ID                                       : 7
  111. Format                                   : PGS
  112. Muxing mode                              : zlib
  113. Codec ID                                 : S_HDMV/PGS
  114. Codec ID/Info                            : Picture based subtitle format used on BDs/HD-DVDs
  115. Duration                                 : 1 h 25 min
  116. Bit rate                                 : 26.0 kb/s
  117. Count of elements                        : 1720
  118. Stream size                              : 15.9 MiB (0%)
  119. Title                                    : Spanish-PGS
  120. Language                                 : Spanish
  121. Default                                  : No
  122. Forced                                   : No

  123. Menu
  124. 00:00:00.000                             : en:Chapter 1
  125. 00:10:21.621                             : en:Chapter 2
  126. 00:19:57.321                             : en:Chapter 3
  127. 00:35:58.823                             : en:Chapter 4
  128. 00:48:13.473                             : en:Chapter 5
  129. 00:55:38.293                             : en:Chapter 6
  130. 01:01:51.874                             : en:Chapter 7
  131. 01:15:39.117                             : en:Chapter 8
  132. 01:22:49.047                             : en:Chapter 9

复制代码
复制代码
190558offzacnpz961plv2.jpg 190558hhdga23i2hhhz5oi.jpg 190559qrxrn17zc4xvhb97.jpg 190559hvdf72mlb29fdwlw.jpg 190600z7c4hwrhobhkcrbk.jpg 190600kepra0cl01fvhp51.jpg






回复

使用道具 举报

蓝光币
821
发表于 2018-4-18 18:10:30 | 显示全部楼层
强烈支持楼主ing……
回复 支持 反对

使用道具 举报

蓝光币
1324
发表于 2018-4-19 10:41:10 | 显示全部楼层
看到这帖子真是高兴!
回复 支持 反对

使用道具 举报

蓝光币
3066
发表于 2018-4-21 02:23:36 | 显示全部楼层
看到这帖子真是高兴!
回复 支持 反对

使用道具 举报

蓝光币
3066
发表于 2018-4-22 02:24:06 | 显示全部楼层
感恩无私的分享与奉献 :)
回复 支持 反对

使用道具 举报

蓝光币
3066
发表于 2018-4-24 00:16:04 | 显示全部楼层
真是被感动的痛哭流涕……
回复 支持 反对

使用道具 举报

蓝光币
3066
发表于 2018-4-25 01:24:28 | 显示全部楼层
无回帖,不高清,这才是人道。
回复 支持 反对

使用道具 举报

蓝光币
821
发表于 2018-4-26 20:20:08 | 显示全部楼层
强烈支持楼主ing……
回复 支持 反对

使用道具 举报

蓝光币
4
发表于 2018-5-14 11:15:22 | 显示全部楼层
激动人心,无法言表!
回复 支持 反对

使用道具 举报

蓝光币
323
发表于 2018-7-30 09:08:54 | 显示全部楼层
强烈支持楼主ing……
回复 支持 反对

使用道具 举报

懒得打字嘛,点击右侧快捷回复 【右侧内容,后台自定义】
您需要登录后才可以回帖 登录 | 立即加入

本版积分规则

Archiver|小黑屋| 蓝光电影网 |网站地图

Copyright © 2021 Comsenz Inc. Powered by 蓝光电影网

蓝光电影网

本站内容由用户自主分享和转载自互联网,转载目的在于传递更多信息,并不代表本网赞同其观点和对其真实性负责。

如有侵权、违反国家法律政策行为,请联系我们,我们会第一时间及时清除和处理!

举报反馈邮箱:[email protected]

快速回复 返回顶部 返回列表