找回密码

蓝光电影网

查看: 6506|回复: 2

自杀小队:严厉惩罚 Suicide.Squad.Hell.to.Pay.2018.2160p.BluRay.x265.10bit.SDR.DTS-HD.MA.5.1-SWTYBLZ 9.41GB

  [复制链接]
蓝光币
623
发表于 2018-4-16 20:36:09 | 显示全部楼层 |阅读模式
011538lu3m1spx99xlpvss.jpg
◎译  名 自杀小队:严厉赏罚
◎片  名 Suicide Squad: Hell to Pay
◎年  代 2018
◎产  地 美国
◎类  别 行动/动画
◎语  言 英语
◎上映日期 2018-03-27(美国)
◎IMDb评分  7.2/10 from 1,724 users
◎IMDb链接  http://www.imdb.com/title/tt7167602/
◎豆瓣评分 7.3/10 from 136 users
◎豆瓣链接 https://movie.douban.com/subject/27098363/
◎片  长 86分钟
◎导  演 刘山姆 Sam Liu
◎主  演 克里斯蒂安·史莱特 Christian Slater
      C·托马斯·豪威尔 C. Thomas Howell
      塔拉·斯特朗 Tara Strong
      丹妮亚·拉米雷兹 Dania Ramirez
      凡妮莎·威廉斯 Vanessa Williams
      比利·布朗 Billy Brown
      克里斯汀·鲍尔 Kristin Bauer
      吉迪恩·埃默里 Gideon Emery
      詹姆斯·乌尔班尼亚克 James Urbaniak
      吉姆·皮里 Jim Pirri
      格雷戈·格伦伯格 Greg Grunberg
      特雷弗·德瓦 Trevor Devall
      马修·默瑟 Matthew Mercer
      Julie Nathanson
      Dave Fennoy
      Cissy Jones
      Natalie Lander
      Dave Boat

◎简  介

  DC动画电影《自杀小队:严厉赏罚》(Suicide Squad: Hell to Pay)公布预告,小丑女、死射、冰霜杀手、铜头蛇、盘旋镖队长、铜虎组成小队,阿曼达·沃勒派遣他们去找回一个奥秘物件——为此他们愿意牺牲人命,而小队很快发现他们面临着其他团伙的应战。
  克里斯汀·史莱特、C·托马斯·豪威尔、塔拉·斯特朗、连姆·麦肯泰尔、比利·布朗、克里斯汀·鲍尔、凡妮莎·威廉姆斯、丹妮亚·拉米雷兹等介入配音,Sam Liu(《蝙蝠侠:致命玩笑》《绿灯侠》动画系列)执导,今春刊行数字版、DVD和蓝光碟。



  1. Video
  2. ID                                       : 1
  3. Format                                   : HEVC
  4. Format/Info                              : High Efficiency Video Coding
  5. Format profile                           : Main [email protected]@High
  6. Codec ID                                 : V_MPEGH/ISO/HEVC
  7. Duration                                 : 1 h 26 min
  8. Bit rate                                 : 12.4 Mb/s
  9. Width                                    : 3 840 pixels
  10. Height                                   : 2 160 pixels
  11. Display aspect ratio                     : 16:9
  12. Frame rate mode                          : Constant
  13. Frame rate                               : 23.976 (24000/1001) FPS
  14. Color space                              : YUV
  15. Chroma subsampling                       : 4:2:0
  16. Bit depth                                : 10 bits
  17. Bits/(Pixel*Frame)                       : 0.063
  18. Stream size                              : 7.47GB (80%)
  19. Title                                    : Suicide.Squad.Hell.to.Pay.2018.2160p.BluRay.x265.10bit.SDR.DTS-HD.MA.5.1-SWTYBLZ
  20. Writing library                          : x265 2.5+4-b4a5bcfe29c7:[Windows][GCC 4.9.3][64 bit] 10bit
  21. Encoding settings                        : cpuid=1173503 / frame-threads=16 / numa-pools=20 / wpp / no-pmode / no-pme / no-psnr / no-ssim / log-level=2 / input-csp=1 / input-res=3840x2160 / interlace=0 / total-frames=0 / level-idc=51 / high-tier=1 / uhd-bd=0 / ref=3 / no-allow-non-conformance / repeat-headers / annexb / aud / hrd / info / hash=0 / no-temporal-layers / no-open-gop / min-keyint=1 / keyint=24 / bframes=4 / b-adapt=2 / b-pyramid / bframe-bias=0 / rc-lookahead=25 / lookahead-slices=4 / scenecut=40 / no-intra-refresh / ctu=64 / min-cu-size=8 / no-rect / no-amp / max-tu-size=32 / tu-inter-depth=1 / tu-intra-depth=1 / limit-tu=0 / rdoq-level=0 / dynamic-rd=0.00 / no-ssim-rd / signhide / no-tskip / nr-intra=0 / nr-inter=0 / no-constrained-intra / strong-intra-smoothing / max-merge=2 / limit-refs=3 / no-limit-modes / me=1 / subme=2 / merange=57 / temporal-mvp / weightp / no-weightb / no-analyze-src-pics / deblock=0:0 / no-sao / no-sao-non-deblock / rd=3 / no-early-skip / rskip / no-fast-intra / no-tskip-fast / no-cu-lossless / no-b-intra / rdpenalty=0 / psy-rd=2.00 / psy-rdoq=0.00 / no-rd-refine / analysis-reuse-mode=0 / no-lossless / cbqpoffs=0 / crqpoffs=0 / rc=crf / crf=14.0 / qcomp=0.60 / qpstep=4 / stats-write=0 / stats-read=0 / vbv-maxrate=160000 / vbv-bufsize=160000 / vbv-init=0.9 / crf-max=0.0 / crf-min=0.0 / ipratio=1.40 / pbratio=1.30 / aq-mode=1 / aq-strength=1.00 / cutree / zone-count=0 / no-strict-cbr / qg-size=32 / no-rc-grain / qpmax=69 / qpmin=0 / no-const-vbv / sar=1 / overscan=0 / videoformat=5 / range=0 / colorprim=2 / transfer=2 / colormatrix=2 / chromaloc=0 / display-window=0 / max-cll=0,0 / min-luma=0 / max-luma=1023 / log2-max-poc-lsb=8 / vui-timing-info / vui-hrd-info / slices=1 / opt-qp-pps / opt-ref-list-length-pps / no-multi-pass-opt-rps / scenecut-bias=0.05 / no-opt-cu-delta-qp / no-aq-motion / no-hdr / no-hdr-opt / no-dhdr10-opt / analysis-reuse-level=5 / scale-factor=0 / refine-intra=0 / refine-inter=0 / refine-mv=0 / no-limit-sao / ctu-info=0
  22. Default                                  : Yes
  23. Forced                                   : No

  24. Audio #1
  25. ID                                       : 2
  26. Format                                   : DTS
  27. Format/Info                              : Digital Theater Systems
  28. Format profile                           : MA / Core
  29. Codec ID                                 : A_DTS
  30. Duration                                 : 1 h 26 min
  31. Bit rate mode                            : Variable / Constant
  32. Bit rate                                 : 2 467 kb/s / 1 509 kb/s
  33. Channel(s)                               : 6 channels
  34. Channel positions                        : Front: L C R, Side: L R, LFE
  35. Sampling rate                            : 48.0 kHz
  36. Frame rate                               : 93.750 FPS (512 SPF)
  37. Bit depth                                : 24 bits
  38. Compression mode                         : Lossless / Lossy
  39. Stream size                              : 1.48GB (16%)
  40. Title                                    : Suicide.Squad.Hell.to.Pay.2018.2160p.BluRay.x265.10bit.SDR.DTS-HD.MA.5.1-SWTYBLZ
  41. Language                                 : English
  42. Default                                  : Yes
  43. Forced                                   : No

  44. Audio #2
  45. ID                                       : 3
  46. Format                                   : AC-3
  47. Format/Info                              : Audio Coding 3
  48. Codec ID                                 : A_AC3
  49. Duration                                 : 1 h 26 min
  50. Bit rate mode                            : Constant
  51. Bit rate                                 : 640 kb/s
  52. Channel(s)                               : 6 channels
  53. Channel positions                        : Front: L C R, Side: L R, LFE
  54. Sampling rate                            : 48.0 kHz
  55. Frame rate                               : 31.250 FPS (1536 SPF)
  56. Bit depth                                : 16 bits
  57. Compression mode                         : Lossy
  58. Stream size                              : 394 MiB (4%)
  59. Title                                    : Suicide.Squad.Hell.to.Pay.2018.2160p.BluRay.x265.10bit.SDR.DTS-HD.MA.5.1-SWTYBLZ
  60. Language                                 : English
  61. Service kind                             : Complete Main
  62. Default                                  : No
  63. Forced                                   : No

  64. Text #1
  65. ID                                       : 4
  66. Format                                   : UTF-8
  67. Codec ID                                 : S_TEXT/UTF8
  68. Codec ID/Info                            : UTF-8 Plain Text
  69. Duration                                 : 1 h 21 min
  70. Bit rate                                 : 46 b/s
  71. Count of elements                        : 838
  72. Stream size                              : 27.5 KiB (0%)
  73. Title                                    : English-SRT
  74. Language                                 : English
  75. Default                                  : Yes
  76. Forced                                   : No

  77. Text #2
  78. ID                                       : 5
  79. Format                                   : PGS
  80. Muxing mode                              : zlib
  81. Codec ID                                 : S_HDMV/PGS
  82. Codec ID/Info                            : Picture based subtitle format used on BDs/HD-DVDs
  83. Duration                                 : 1 h 25 min
  84. Bit rate                                 : 29.8 kb/s
  85. Count of elements                        : 2110
  86. Stream size                              : 18.3 MiB (0%)
  87. Title                                    : English-PGS
  88. Language                                 : English
  89. Default                                  : No
  90. Forced                                   : No

  91. Text #3
  92. ID                                       : 6
  93. Format                                   : PGS
  94. Muxing mode                              : zlib
  95. Codec ID                                 : S_HDMV/PGS
  96. Codec ID/Info                            : Picture based subtitle format used on BDs/HD-DVDs
  97. Duration                                 : 1 h 25 min
  98. Bit rate                                 : 26.7 kb/s
  99. Count of elements                        : 1700
  100. Stream size                              : 16.4 MiB (0%)
  101. Title                                    : French-PGS
  102. Language                                 : French
  103. Default                                  : No
  104. Forced                                   : No

  105. Text #4
  106. ID                                       : 7
  107. Format                                   : PGS
  108. Muxing mode                              : zlib
  109. Codec ID                                 : S_HDMV/PGS
  110. Codec ID/Info                            : Picture based subtitle format used on BDs/HD-DVDs
  111. Duration                                 : 1 h 25 min
  112. Bit rate                                 : 26.0 kb/s
  113. Count of elements                        : 1720
  114. Stream size                              : 15.9 MiB (0%)
  115. Title                                    : Spanish-PGS
  116. Language                                 : Spanish
  117. Default                                  : No
  118. Forced                                   : No

  119. Menu
  120. 00:00:00.000                             : en:Chapter 1
  121. 00:10:21.621                             : en:Chapter 2
  122. 00:19:57.321                             : en:Chapter 3
  123. 00:35:58.823                             : en:Chapter 4
  124. 00:48:13.473                             : en:Chapter 5
  125. 00:55:38.293                             : en:Chapter 6
  126. 01:01:51.874                             : en:Chapter 7
  127. 01:15:39.117                             : en:Chapter 8
  128. 01:22:49.047                             : en:Chapter 9

复制代码
复制代码
011539e3jhc21cb4d3j33b.jpg 011539vrzgktu6rdwydytp.jpg 011539ufbj5vs5sf4f8vsj.jpg 011540ka9bhaaqm89n8qcz.jpg 011540iq2pp3pyi2xuqu2q.jpg 011540xlcsjulo3jciitlz.jpg







回复

使用道具 举报

蓝光币
189
发表于 2018-4-17 10:33:00 | 显示全部楼层
强烈支持楼主ing……
回复 支持 反对

使用道具 举报

蓝光币
821
发表于 2018-4-18 18:08:14 | 显示全部楼层
强烈支持楼主ing……
回复 支持 反对

使用道具 举报

懒得打字嘛,点击右侧快捷回复 【右侧内容,后台自定义】
您需要登录后才可以回帖 登录 | 立即加入

本版积分规则

Archiver|小黑屋| 蓝光电影网 |网站地图

Copyright © 2021 Comsenz Inc. Powered by 蓝光电影网

蓝光电影网

本站内容由用户自主分享和转载自互联网,转载目的在于传递更多信息,并不代表本网赞同其观点和对其真实性负责。

如有侵权、违反国家法律政策行为,请联系我们,我们会第一时间及时清除和处理!

举报反馈邮箱:[email protected]

快速回复 返回顶部 返回列表