找回密码

蓝光电影网

查看: 2538|回复: 1

华盛顿邮报/邮报:密战 The.Post.2017.2160p.BluRay.x265.10bit.SDR.DTS-HD.MA.7.1-SWTYBLZ 29.42GB

[复制链接]
蓝光币
623
发表于 2018-4-16 20:36:34 | 显示全部楼层 |阅读模式
013503q4swomshmjwdchjc.jpg
◎译  名 华盛顿邮报/邮报:密战/战云密报/邮报
◎片  名 The Post
◎年  代 2017
◎产  地 美国/英国
◎类  别 剧情/列传/历史/惊悚
◎语  言 英语
◎上映日期 2017-12-22(美国点映)/2018-01-12(美国)
◎IMDb评分  7.2/10 from 61,128 users
◎IMDb链接  http://www.imdb.com/title/tt6294822/
◎豆瓣评分 8.2/10 from 28,483 users
◎豆瓣链接 https://movie.douban.com/subject/26990609/
◎片  长 116分钟
◎导  演 史蒂文·斯皮尔伯格 Steven Spielberg
◎主  演 梅丽尔·斯特里普 Meryl Streep
      汤姆·汉克斯 Tom Hanks
      莎拉·保罗森 Sarah Paulson
      鲍勃·奥及第克 Bob Odenkirk
      崔西·莱茨 Tracy Letts
      布莱德利·惠特福德 Bradley Whitford
      布鲁斯·格林伍德 Bruce Greenwood
      马修·瑞斯 Matthew Rhys
      爱丽森·布里 Alison Brie
      凯莉·库恩 Carrie Coon
      杰西·普莱蒙 Jesse Plemons
      大卫·克罗斯 David Cross
      扎克·伍兹 Zach Woods
      帕特·希利 Pat Healy
      约翰·鲁 John Rue
      里克·霍姆斯 Rick Holmes
      菲利普·卡斯诺夫 Philip Casnoff
      杰茜·缪勒 Jessie Mueller
      斯塔克·桑德斯 Stark Sands
      迈克尔·西里尔·克赖顿 Michael Cyril Creighton
      威尔·丹顿 Will Denton
      迪尔德丽·罗夫乔 Deirdre Lovejoy
      迈克尔·斯图巴 Michael Stuhlbarg

◎简  介

  本片聚焦1971年五角大楼保密事务。汤姆·汉克斯饰演《华盛顿邮报》总编辑本·布拉德利,梅姨饰演刊行人凯瑟琳·格雷厄姆。凯瑟琳·格雷厄姆与本·巴格迪坎要赶在《纽约时报》之前揭穿一件历经四届美国总统任期、长达三十余年的庞大袒护事务。这两小我必须消弭他们之间的差别,各自拿他们的奇迹、甚至人身自在冒险,让久长以来埋藏在黑暗深处的真相重见光亮。

◎获奖情况

  第90届奥斯卡金像奖  (2018)
  最好影片(提名) 史蒂文·斯皮尔伯格 / 克里斯蒂·麦克斯科·克里格 / 艾米·帕斯卡尔
  最好女配角(提名) 梅丽尔·斯特里普

  第75届金球奖  (2018)
  电影类 最好剧情片(提名)
  电影类 最好导演(提名) 史蒂文·斯皮尔伯格
  电影类 剧情片最好男配角(提名) 汤姆·汉克斯
  电影类 剧情片最好女配角(提名) 梅丽尔·斯特里普
  电影类 最好编剧(提名) 乔希·辛格 / 丽兹·汉娜
  电影类 最好原创配乐(提名) 约翰·威廉姆斯

  第29届美国制片野生会奖  (2018)
  最好电影制片人奖(提名)

  第68届美国剪辑工会奖  (2018)
  剧情片最好剪辑(提名) 迈克尔·卡恩 / 莎拉·布罗沙

  第22届美国艺术指导工会奖  (2018)
  电影奖 最好历史电影艺术指导(提名)

  第89届美国国家批评协会奖  (2017)
  最好影片 史蒂文·斯皮尔伯格
  最好男配角 汤姆·汉克斯
  最好女配角 梅丽尔·斯特里普

  第23届美国批评家挑选电影奖  (2018)
  最好影片(提名)
  最好导演(提名) 史蒂文·斯皮尔伯格
  最好男配角(提名) 汤姆·汉克斯
  最好女配角(提名) 梅丽尔·斯特里普
  最好群戏(提名)
  最好原创剧本(提名) 丽兹·汉娜
  最好剪辑(提名)
  最好配乐(提名)

  第18届美国电影学会奖  (2017)
  年度佳片

  第52届美国国家影评人协会奖  (2018)
  最好男配角(提名) 迈克尔·斯图巴

  第16届华盛顿影评人协会奖  (2017)
  华盛顿特区最好写照

  第4届豆瓣电影年度榜单  (2017)
  2017-2018北美颁奖季热门佳片(提名)



  1. Video
  2. ID                                       : 1
  3. Format                                   : HEVC
  4. Format/Info                              : High Efficiency Video Coding
  5. Format profile                           : Main [email protected]@High
  6. Codec ID                                 : V_MPEGH/ISO/HEVC
  7. Duration                                 : 1 h 55 min
  8. Bit rate                                 : 31.0 Mb/s
  9. Width                                    : 3 840 pixels
  10. Height                                   : 2 076 pixels
  11. Display aspect ratio                     : 1.85:1
  12. Frame rate mode                          : Constant
  13. Frame rate                               : 23.976 (24000/1001) FPS
  14. Color space                              : YUV
  15. Chroma subsampling                       : 4:2:0
  16. Bit depth                                : 10 bits
  17. Bits/(Pixel*Frame)                       : 0.162
  18. Stream size                              : 25.1GB (86%)
  19. Title                                    : The.Post.2017.2160p.BluRay.x265.10bit.SDR.DTS-HD.MA.7.1-SWTYBLZ
  20. Writing library                          : x265 2.5+4-b4a5bcfe29c7:[Windows][GCC 4.9.3][64 bit] 10bit
  21. Encoding settings                        : cpuid=1173503 / frame-threads=16 / numa-pools=24,24,24,24 / wpp / no-pmode / no-pme / no-psnr / no-ssim / log-level=2 / input-csp=1 / input-res=3840x2076 / interlace=0 / total-frames=0 / level-idc=51 / high-tier=1 / uhd-bd=0 / ref=3 / no-allow-non-conformance / repeat-headers / annexb / aud / hrd / info / hash=0 / no-temporal-layers / no-open-gop / min-keyint=1 / keyint=24 / bframes=4 / b-adapt=2 / b-pyramid / bframe-bias=0 / rc-lookahead=25 / lookahead-slices=4 / scenecut=40 / no-intra-refresh / ctu=64 / min-cu-size=8 / no-rect / no-amp / max-tu-size=32 / tu-inter-depth=1 / tu-intra-depth=1 / limit-tu=0 / rdoq-level=0 / dynamic-rd=0.00 / no-ssim-rd / signhide / no-tskip / nr-intra=0 / nr-inter=0 / no-constrained-intra / strong-intra-smoothing / max-merge=2 / limit-refs=3 / no-limit-modes / me=1 / subme=2 / merange=57 / temporal-mvp / weightp / no-weightb / no-analyze-src-pics / deblock=0:0 / no-sao / no-sao-non-deblock / rd=3 / no-early-skip / rskip / no-fast-intra / no-tskip-fast / no-cu-lossless / no-b-intra / rdpenalty=0 / psy-rd=2.00 / psy-rdoq=0.00 / no-rd-refine / analysis-reuse-mode=0 / no-lossless / cbqpoffs=0 / crqpoffs=0 / rc=crf / crf=20.0 / qcomp=0.60 / qpstep=4 / stats-write=0 / stats-read=0 / vbv-maxrate=160000 / vbv-bufsize=160000 / vbv-init=0.9 / crf-max=0.0 / crf-min=0.0 / ipratio=1.40 / pbratio=1.30 / aq-mode=1 / aq-strength=1.00 / cutree / zone-count=0 / no-strict-cbr / qg-size=32 / no-rc-grain / qpmax=69 / qpmin=0 / no-const-vbv / sar=1 / overscan=0 / videoformat=5 / range=0 / colorprim=2 / transfer=2 / colormatrix=2 / chromaloc=0 / display-window=0 / max-cll=0,0 / min-luma=0 / max-luma=1023 / log2-max-poc-lsb=8 / vui-timing-info / vui-hrd-info / slices=1 / opt-qp-pps / opt-ref-list-length-pps / no-multi-pass-opt-rps / scenecut-bias=0.05 / no-opt-cu-delta-qp / no-aq-motion / no-hdr / no-hdr-opt / no-dhdr10-opt / analysis-reuse-level=5 / scale-factor=0 / refine-intra=0 / refine-inter=0 / refine-mv=0 / no-limit-sao / ctu-info=0
  22. Default                                  : Yes
  23. Forced                                   : No

  24. Audio #1
  25. ID                                       : 2
  26. Format                                   : DTS
  27. Format/Info                              : Digital Theater Systems
  28. Format profile                           : MA / ES Matrix / Core
  29. Codec ID                                 : A_DTS
  30. Duration                                 : 1 h 55 min
  31. Bit rate mode                            : Variable / Constant / Constant
  32. Bit rate                                 : 4 551 kb/s / 1 509 kb/s / 1 509 kb/s
  33. Channel(s)                               : 8 channels / 7 channels / 6 channels
  34. Channel positions                        : Front: L C R, Side: L R, Back: L R, LFE / Front: L C R, Side: L R, Back: C, LFE / Front: L C R, Side: L R, LFE
  35. Sampling rate                            : 48.0 kHz
  36. Frame rate                               : 93.750 FPS (512 SPF)
  37. Bit depth                                : 24 bits
  38. Compression mode                         : Lossless / Lossy / Lossy
  39. Stream size                              : 3.69GB (13%)
  40. Title                                    : The.Post.2017.2160p.BluRay.x265.10bit.SDR.DTS-HD.MA.7.1-SWTYBLZ
  41. Language                                 : English
  42. Default                                  : Yes
  43. Forced                                   : No

  44. Audio #2
  45. ID                                       : 3
  46. Format                                   : AC-3
  47. Format/Info                              : Audio Coding 3
  48. Codec ID                                 : A_AC3
  49. Duration                                 : 1 h 55 min
  50. Bit rate mode                            : Constant
  51. Bit rate                                 : 640 kb/s
  52. Channel(s)                               : 6 channels
  53. Channel positions                        : Front: L C R, Side: L R, LFE
  54. Sampling rate                            : 48.0 kHz
  55. Frame rate                               : 31.250 FPS (1536 SPF)
  56. Bit depth                                : 16 bits
  57. Compression mode                         : Lossy
  58. Stream size                              : 531 MiB (2%)
  59. Title                                    : The.Post.2017.2160p.BluRay.x265.10bit.SDR.DTS-HD.MA.7.1-SWTYBLZ
  60. Language                                 : English
  61. Service kind                             : Complete Main
  62. Default                                  : No
  63. Forced                                   : No

  64. Text #1
  65. ID                                       : 4
  66. Format                                   : UTF-8
  67. Codec ID                                 : S_TEXT/UTF8
  68. Codec ID/Info                            : UTF-8 Plain Text
  69. Duration                                 : 1 h 48 min
  70. Bit rate                                 : 87 b/s
  71. Count of elements                        : 2170
  72. Stream size                              : 69.7 KiB (0%)
  73. Title                                    : English-SRT
  74. Language                                 : English
  75. Default                                  : Yes
  76. Forced                                   : No

  77. Text #2
  78. ID                                       : 5
  79. Format                                   : PGS
  80. Muxing mode                              : zlib
  81. Codec ID                                 : S_HDMV/PGS
  82. Codec ID/Info                            : Picture based subtitle format used on BDs/HD-DVDs
  83. Duration                                 : 1 h 48 min
  84. Bit rate                                 : 59.1 kb/s
  85. Count of elements                        : 4568
  86. Stream size                              : 45.9 MiB (0%)
  87. Title                                    : English-PGS
  88. Language                                 : English
  89. Default                                  : No
  90. Forced                                   : No

  91. Text #3
  92. ID                                       : 6
  93. Format                                   : PGS
  94. Muxing mode                              : zlib
  95. Codec ID                                 : S_HDMV/PGS
  96. Codec ID/Info                            : Picture based subtitle format used on BDs/HD-DVDs
  97. Duration                                 : 1 h 54 min
  98. Bit rate                                 : 40.8 kb/s
  99. Count of elements                        : 3618
  100. Stream size                              : 33.6 MiB (0%)
  101. Title                                    : French-PGS
  102. Language                                 : French
  103. Default                                  : No
  104. Forced                                   : No

  105. Text #4
  106. ID                                       : 7
  107. Format                                   : PGS
  108. Muxing mode                              : zlib
  109. Codec ID                                 : S_HDMV/PGS
  110. Codec ID/Info                            : Picture based subtitle format used on BDs/HD-DVDs
  111. Duration                                 : 1 h 54 min
  112. Bit rate                                 : 46.5 kb/s
  113. Count of elements                        : 3606
  114. Stream size                              : 38.3 MiB (0%)
  115. Title                                    : Spanish-PGS
  116. Language                                 : Spanish
  117. Default                                  : No
  118. Forced                                   : No

  119. Menu
  120. 00:00:00.000                             : en:Chapter 1
  121. 00:05:01.926                             : en:Chapter 2
  122. 00:10:08.733                             : en:Chapter 3
  123. 00:12:32.793                             : en:Chapter 4
  124. 00:16:22.398                             : en:Chapter 5
  125. 00:19:19.616                             : en:Chapter 6
  126. 00:24:53.325                             : en:Chapter 7
  127. 00:30:23.988                             : en:Chapter 8
  128. 00:34:51.672                             : en:Chapter 9
  129. 00:39:08.679                             : en:Chapter 10
  130. 00:43:25.811                             : en:Chapter 11
  131. 00:48:20.564                             : en:Chapter 12
  132. 00:54:38.692                             : en:Chapter 13
  133. 00:59:39.784                             : en:Chapter 14
  134. 01:03:49.116                             : en:Chapter 15
  135. 01:09:59.570                             : en:Chapter 16
  136. 01:14:04.857                             : en:Chapter 17
  137. 01:20:20.273                             : en:Chapter 18
  138. 01:24:30.732                             : en:Chapter 19
  139. 01:30:22.667                             : en:Chapter 20
  140. 01:35:23.759                             : en:Chapter 21
  141. 01:38:46.545                             : en:Chapter 22
  142. 01:43:07.723                             : en:Chapter 23
  143. 01:49:27.852                             : en:Chapter 24

复制代码
复制代码
013505we2624e0s4k7cuqv.jpg 013505i1sa1zufg7ia7p27.jpg 013506dpzmmezsxlj66zel.jpg 013507ud5t05z5t0dzti6d.jpg 013508xegexgllum0kqkmf.jpg 013509huff7qa47aoq26v8.jpg







回复

使用道具 举报

蓝光币
821
发表于 2018-4-18 17:57:40 | 显示全部楼层
强烈支持楼主ing……
回复 支持 反对

使用道具 举报

懒得打字嘛,点击右侧快捷回复 【右侧内容,后台自定义】
您需要登录后才可以回帖 登录 | 立即加入

本版积分规则

Archiver|小黑屋| 蓝光电影网 |网站地图

Copyright © 2021 Comsenz Inc. Powered by 蓝光电影网

蓝光电影网

本站内容由用户自主分享和转载自互联网,转载目的在于传递更多信息,并不代表本网赞同其观点和对其真实性负责。

如有侵权、违反国家法律政策行为,请联系我们,我们会第一时间及时清除和处理!

举报反馈邮箱:[email protected]

快速回复 返回顶部 返回列表